Watch AEW Dynamite 2020 01 15 1080p

Watch AEW Dynamite 2020 01 15 1080p DX-TV

 

 

aew

 

 

 

 

dx-tv.com

 

 

 

 

Watch AEW Dynamite 2020 01 15 1080p

 

 

 

 

 

Complete name :AEW.Dynamite.2020.01.15.1080p.WEB.h264-HEEL.mp4
Format : MPEG-4
Format profile : Base Media
Codec ID : isom (isom/iso2/avc1/mp41)
File size : 3.65 GiB
Duration : 2 h 0 min
Overall bit rate : 4 350 kb/s
Writing application : Lavf58.30.100

Video
ID : 1
Format : AVC
Duration : 2 h 0 min
Bit rate : 4 082 kb/s
Width : 1 920 pixels
Height : 1 080 pixels
Display aspect ratio : 16:9
Frame rate mode : Variable
Frame rate : 29.970 (30000/1001) FPS
Minimum frame rate : 29.412 FPS
Maximum frame rate : 30.303 FPS
Color space : YUV
Chroma subsampling : 4:2:0
Bit depth : 8 bits
Scan type : Progressive
Bits/(Pixel*Frame) : 0.066
Stream size : 3.43 GiB (94%)
Codec configuration box : avcC

Audio #1
ID : 2
Format : AAC LC
Codec ID : mp4a-40-2
Duration : 2 h 0 min
Bit rate mode : Constant
Bit rate : 128 kb/s
Channel(s) : 2 channels
Channel layout : L R
Sampling rate : 48.0 kHz
Frame rate : 46.875 FPS (1024 SPF)
Compression mode : Lossy
Stream size : 110 MiB (3%)
Language : English
Default : Yes
Alternate group : 1

Audio #2
ID : 3
Format : AAC LC
Format/Info : Advanced Audio Codec Low Complexity
Codec ID : mp4a-40-2
Duration : 2 h 0 min
Bit rate mode : Constant
Bit rate : 128 kb/s
Channel(s) : 2 channels
Channel layout : L R
Sampling rate : 48.0 kHz
Frame rate : 46.875 FPS (1024 SPF)
Compression mode : Lossy
Stream size : 110 MiB (3%)
Language : Spanish
Default : No
Alternate group : 1

 

 

 

Watch online

 

 

Server 1

 

 

 

 

watch now

 

 

Watch AEW Dynamite 2020 01 15 1080p

 

 

 

Uploaded By Site DX-TV.com

 

 

 

 

Download VIP Members FTP Link and Free Links 

 

 

Limited Time will be removed after 30 days if you need available again pm email admin

 

This section is only available to registered users.

1fichier.com 

 

 

 

dailyuploads.net

 

 

earn4files.com

 

 

dl.free.fr

 

 

 

Download with premium account Links 

 

 

nitroflare.com

 

 

rapidgator.net

 

 

uploaded.net

 

 

 

 

 

 

 

 

 

Categories

ADS



Archives