Watch AEW DARK Full Show 2020 09 22

Watch AEW DARK Full Show 2020 09 22 1080p DX-TV

AEW

 

 

 AEW

Watch AEW DARK Full Show 2020 09 22

 

 

 

[su_expand more_text=”Show More Info” less_text=”Close all Info” height=”30″ text_color=”#000000″ link_color=”#e25f8b” link_style=”button” more_icon=”icon: arrow-down” less_icon=”icon: arrow-up”]

 

Complete name : AEW.DARK.22nd.Sept.2020.1080p.WEBRip.h264-TJ.mp4
Format : MPEG-4
Format profile : Base Media
Codec ID : isom
File size : 3.07 GiB
Duration : 1 h 35 min
Overall bit rate : 4 611 kb/s
Writing application : Lavf57.83.100

AEW DARK Full Show

Video
ID : 1
Format : AVC
Duration : 1 h 35 min
Bit rate : 4 475 kb/s
Width : 1 920 pixels
Height : 1 080 pixels
Display aspect ratio : 16:9
Frame rate mode : Constant
rate : 29.970 (30000/1001) FPS
Color space : YUV
Chroma subsampling : 4:2:0
Bit depth : 8 bits
Scan type : Progressive
Bits/(Pixel*Frame) : 0.072
Stream size : 2.98 GiB (97%)
Color range : Limited
Color primaries : BT.709
Transfer characteristics : BT.709
Matrix coefficients : BT.709
Codec configuration box : avcC

AEW DARK Full Show

Audio
ID : 2
Format : AAC LC
Format/Info : Advanced
Codec ID : mp4a-40-2
Duration : 1 h 35 min
Duration_LastFrame : 1 ms
Bit rate mode : Constant
Bit rate : 128 kb/s
Channel(s) : 2 channels
Channel layout : L R
Sampling rate : 44.1 kHz
Frame rate : 43.066 FPS (1024 SPF)
Compression mode : Lossy
Stream size : 87.3 MiB (3%)
Language : English
Default : Yes
Alternate group : 1

AEW DARK Full Show

Tony Schiavone interviewed Matt Jackson of the Young Bucks earlier in the day backstage.

Matt said they should have never superkicked Alex Marvez or ref Mike Posey and he feels bad about that.

Matt said the Bucks have been through a lot in the past few weeks but they will do better.

Tony asked about FTR and Matt Jackson grew frustrated and asked for a different question.

Matt Jackson requested to see Tony Schiavone’s smart phone and then smashed it against the wall.

Matt said he felt bad about doing that and tossed money at Tony, telling him to upgrade.

 

Watch AEW DARK Full Show 2020 09 22

 

 

[/su_expand]

 

 

 

Watch online

 

 

[su_expand more_text=”Open Videos Online” less_text=”Close Videos” height=”0″ text_color=”#0859fe” link_color=”#a74a69″ link_style=”button” more_icon=”icon: play” less_icon=”icon: stop”]

 

 

Server 1

 

 

 

 

AEW

 

 

 

 

Server-2

 

 

 

watch now

 

 

 

 

Server-3

 

 

 

watch now

 

 

 

[/su_expand]
 

Uploaded By Site DX-TV.com

 

 

 

 

 

Download Free Links with normal and high Speed [ more 15 hosts ]  

 

[su_expand more_text=”Show Hosts Info” less_text=”Close all Info” height=”30″ text_color=”#000000″ link_color=”#e25f8b” link_style=”button” more_icon=”icon: arrow-down” less_icon=”icon: arrow-up”]

AEW DARK Full Show

 

hexupload.net – clicknupload.co – www.multiup.org – uptobox.com – anonfiles.com – userscloud.com –

dropapk.to alfafile.net – ddownload.com – rockfile.co – 1fichier.com – filedown.org – katfile.com – filerio.in

 

 

[/su_expand]

 

 

http://shrt10.com/ttDrFGCWB
http://shrt10.com/xSOJyFs
http://shrt10.com/7pswgmV
http://shrt10.com/UlVMLBlA
http://shrt10.com/YnHbR
http://shrt10.com/lP6BmA4y
http://shrt10.com/XhuB0
http://shrt10.com/plYYokNuo
http://shrt10.com/P692JIn
http://shrt10.com/86Fnmz

 

 

 

Download Links with premium High Speed   

 

 

 

Keep2Share

 

 

 

uploaded.net

 

 

 

nitroflare.com

 

 

 

rapidgator.net

 

 

 

uploadgig.com

 

 

 

 

dx-tv.com

 

urlfree.net

Leave a Reply

Your email address will not be published. Required fields are marked *

This site uses Akismet to reduce spam. Learn how your comment data is processed.