Watch AEW Dark Free Online 2020 10 06 720p

AEW Dark Free Online 2020 10 06 720pDX-TV

 

Watch AEW

 

Watch AEW
 


 

 

Watch AEW Dark Free Online 2020 10 06 720p

 

AEW WORLD TAG TEAM TITLE MATCH ***20 MINUTE TIME LIMIT***

FTR (Cash Wheeler & Dax Harwood w/ Tully Blanchard) (c)

vs. The Hybrid2 (Angelico & Jack Evans)

Last week the reigning World Tag Team Champions made their first defense of the AEW titles, under the new twenty-minute time limit rules set-up by Tully Blanchard, against the original champions Frankie Kazarian and Scorpio Sky. The former champions gave the current ones a tremendous fight, but with an assist from their adviser, Cash and Dax retained their championship in just under sixteen minutes.

Watch AEW

 

Complete name : AEW Dark Episode 55 – 10_6_2020 720p.mp4
Format : MPEG-4
Format profile : Base Media
Codec ID : mp42 (isom/mp42)
File size : 1.41 GiB
Duration : 1 h 31 min
Overall bit rate mode : Variable
Overall bit rate : 2 217 kb/s

Watch AEW

Video
ID : 1
Format : AVC
Duration : 1 h 31 min
Bit rate : 2 085 kb/s
Width : 1 280 pixels
Height : 720 pixels
Display aspect ratio : 16:9
Frame rate mode : Constant
 rate : 29.970 (30000/1001) FPS
Color space : YUV
Chroma subsampling : 4:2:0
Bit depth : 8 bits
Scan type : Progressive
Bits/(Pixel*Frame) : 0.075
Stream size : 1.33 GiB (94%)
Color range : Limited
Color primaries : BT.709
Transfer characteristics : BT.709
Matrix coefficients : BT.709
Codec configuration box : avcC

Watch AEW

Audio
ID : 2
Format : AAC LC
Format/Info : Advanced Audio
Codec ID : mp4a-40-2
Duration : 1 h 31 min
Bit rate mode : Variable
Bit rate : 128 kb/s
Channel(s) : 2 channels
Channel layout : L R
Sampling rate : 44.1 kHz
Frame rate : 43.066 FPS (1024 SPF)
Compression mode : Lossy
Stream size : 83.3 MiB (6%)
Language : English

 

 

 

Watch AEW Dark Free Online 2020 10 06 720p

 

 

Watch online

 

 

Server 1

 

 

 

 

Watch AEW

 

 

 

 

Server-2

 

 

 

Watch AEW

 

 

 

 

Server-3

 

 

 

Watch AEW

 

 

 

 

Uploaded By Site DX-TV.com

 

 

 

 

Download Free Links with normal and high Speed [ more 14 hosts ]  

 

Watch AEW

 

 

http://shrt10.com/9zBMPGyKs
http://shrt10.com/iX5l2h
http://shrt10.com/8YTiZ
http://shrt10.com/cfgq0aZ
http://shrt10.com/S51vEf
http://shrt10.com/MRKOzZ75w
http://shrt10.com/xXuWwNP
http://shrt10.com/UJhBf0a2
http://shrt10.com/iKe5H
http://shrt10.com/bkkUJIN6l
http://shrt10.com/wwdRLP
http://shrt10.com/2vV12
http://shrt10.com/yh8mE

 

 

 

Download Links with premium High Speed   

 

 

nitroflare.com

 

 

 

rapidgator.net

 

 

 

uploaded.net

 

 

 

uploadgig.com

 

 

 

 

 

dx-tv.com

 

urlfree.net

Leave a Reply

Your email address will not be published. Required fields are marked *

This site uses Akismet to reduce spam. Learn how your comment data is processed.