Watch AEW DARK 13 10 2020 Free Online

AEW DARK 13 10 2020 Free Online DX-TV

Watch AEW

 

Watch AEW

 

Watch AEW DARK 13 10 2020 Free Online

 

 

The date was January 4, 2020 and the location was the legendary Tokyo Dome in Japan; on that evening Jon Moxley and Lance Archer locked up for the one and only time in their careers, under the auspices of a Texas Death Match, and with New Japan Pro Wrestling’s IWGP United States Heavyweight Title on the line. It was a fifteen minute war between the two combatants, and when the final bell gonged, it was Mox who survived to call himself the new champion.

Watch AEW

Complete name : AEW.DARK.13th.Oct.2020.720p.WEBRip.h264-TJ.mp4
Format : MPEG-4
Format profile : Base Media
Codec ID : isom
File size : 1.76 GiB
Duration : 1 h 52 min
Overall bit rate : 2 238 kb/s
Writing application : Lavf57 

Watch AEW

Video
ID : 1
Format : AVC
Duration : 1 h 52 min
Bit rate : 2 102 kb/s
Width : 1 280 pixels
Height : 720 pixels
Display aspect ratio : 16:9
Frame rate mode : Constant
Frame rate : 29.970 FPS
Color space : YUV
Chroma sampling : 4:2:0
Bit depth : 8 bits
Scan type : Progressive
Bits/(Pixel*Frame) : 0.076
Stream size : 1.65 GiB (94%)
Color range : Limited
Color primaries : BT.709
Transfer characteristics : BT.709
Matrix coefficients : BT.709
Codec configuration box : avcC

Watch AEW

Audio
ID : 2
Format : AAC LC
Format/Info : Advanced
Codec ID : mp4a-40-2
Duration : 1 h 52 min
Bit rate mode : Constant
Bit rate : 128 kb/s
Channel(s) : 2 channels
Channel layout : L R
Sampling rate : 44.1 kHz
Frame rate : 43.066 FPS (1024 SPF)
Compression mode : Lossy
Stream size : 103 MiB (6%)
Language : English
Default : Yes
Alternate group : 1

 

 

 

Watch AEW DARK 13 10 2020 Free Online

 

 

Watch online

 

 

Server 1

 

 

 

 

Watch AEW

 

 

 

 

Server-2

 

 

 

Watch AEW

 

 

 

 

Server-3

 

 

 

Watch AEW

 

 

 

 

Uploaded By Site DX-TV.com

 

 

 

 

Download Free Links with normal and high Speed [ more 14 hosts ]  

 

 

 

 

http://shrt10.com/kSOy8E
http://shrt10.com/EWscH
http://shrt10.com/OsKgE
http://shrt10.com/Aho6str5h
http://shrt10.com/6vAsAzD
http://shrt10.com/0rlSx
http://shrt10.com/sBpV5
http://shrt10.com/QYHCf
http://shrt10.com/kjptQ
http://shrt10.com/P4KM8pe

 

 

 

Download Links with premium High Speed   

 

 

 

dropapk.to

 

 

 

nitroflare.com

 

 

 

rapidgator.net

 

 

 

uploaded.net

 

 

 

uploadgig.com

 

 

 

 

 

dx-tv.com

 

urlfree.net

Leave a Reply

Your email address will not be published. Required fields are marked *

This site uses Akismet to reduce spam. Learn how your comment data is processed.