Watch AEW DARK 12th Oct 2021 1080p

Watch AEW DARK 12th Oct 2021 1080p Online Free Replay DX-TV

Watch AEW

 Watch AEW

 

 

 

Download Links with premium High Speed

Dopapk

 

 

Show Links

 

 

http://shrt10.com/xXcFS

 

[collapse]

 

 

 

 

Nitroflare

 

 

Show Links

 

 

http://shrt10.com/sfuqgiQ

 

 

[collapse]

 

 

Rapidgator

 

 

Show Links

 

 

http://shrt10.com/9Y9Uo

 

 

[collapse]

 

 

 

Uploaded
 

Show Links

 

 

 

 

http://shrt10.com/HHS3GiHA

 

 

[collapse]

 

 

 

 

 

Watch online

 

Server 1

 

 

 

 

Watch AEW

 

 

 

 

Server-2

 

 

 

 

 now

 

 

 

|Server-3

 

 

 

 

  now

 

 

Uploaded By Site DX-TV.com

 

 

Show Info This Show

 

 

Complete name : AEW.DARK.12th.Oct.2021.1080p.WEBRip.h264-TJ.mp4
Format : MPEG-4
Format profile : Base Media
Codec ID : isommp41)
File size : 532 MiB
Duration : 22 min 1 s
Overall bit rate : 3 379 kb/s

Watch AEW

Video
ID : 1
Duration : 22 min 1 s
Bit rate : 3 243 kb/s
Width : 1 920 pixels
Height : 1 080 pixels
Display aspect ratio : 16:9
Frame rate mode : Constant
Frame rate : 29.970 (30000/1001) FPS
Color space : YUV
Chroma subsampling : 4:2:0
Bit depth : 8 bits
Scan type : Progressive
Bits/(Pixel*Frame) : 0.052
Stream size : 511 MiB (96%)
Color range : Limited
Color primaries : BT.709
Transfer characteristics : BT.709
Matrix coefficients : BT.709
Codec configuration box : avcC

Watch AEW

Audio
ID : 2
Format : AAC LC
Codec ID : mp4a-40-2
Duration : 22 min 1 s
Bit rate mode : Constant
Bit rate : 128 kb/s
Channel(s) : 2 channels
Channel layout : L R
Sampling rate : 44.1 kHz
Frame rate : 43.066 FPS (1024 SPF)
Compression mode : Lossy
Stream size : 20.2 MiB (4%)
Language : English
Default : Yes
Alternate group : 1

Watch AEW

 

 

it rate : 3 243 kb/s
Width : 1 920 pixels
Height : 1 080 pixels
Display aspect ratio : 16:9
Frame rate mode : Constant
Frame rate : 29.970 (30000/1001) FPS
Color space : YUV
Chroma subsampling : 4:2:0
Bit depth : 8 bits
Scan type : Progressive
Bits/(Pixel*Frame) : 0.052
Stream size : 511 MiB (96%)
Color range : Limited
Color primaries : BT.709
Transfer characteristics : BT.709
Matrix coefficients : BT.709
Codec configuration box : avcC

Watch AEW

Audio
ID : 2
Format : AAC LC
Codec ID : mp4a-40-2
Duration : 22 min 1 s
Bit rate mode : Constant
Bit rate : 128 kb/s
Channel(s) : 2 channels
Channel layout : L R
Sampling rate : 44.1 kHz
Frame rate : 43.066 FPS (1024 SPF)
Compression mode : Lossy
Stream size : 20.2 MiB (4%)
Language : English
Default : Yes
Alternate group : 1

Watch AEW

 

 

 

 

[collapse]

 

 

https://dx-tv.com/

You May Also Like

Leave a Reply

Your email address will not be published. Required fields are marked *

This site uses Akismet to reduce spam. Learn how your comment data is processed.