Watch AAW Windy City Classic XV 2019 540p DX-TV

Watch AAW Windy City Classic XV 2019 540p DX-TV

 

 

WWE RAW

 

 

 

 

dx-tv.com

 

 

 

 

Watch AAW Windy City Classic XV 2019 540p DX-TV

 

 

 

 

Complete name : AAW Pro Wrestling Windy City Classic XV 2019 540 WEB x264 DX-TV.mp4
Format : MPEG-4
Format profile : Base Media / Version 2
Codec ID : mp42 (mp42)
File size : 2.69 GiB
Duration : 3 h 1 min
Overall bit rate : 2 124 kb/s

Video
ID : 1
Format : AVC
Duration : 3 h 1 min
Bit rate : 1 990 kb/s
Width : 960 pixels
Height : 540 pixels
Display aspect ratio : 16:9
Frame rate mode : Constant
Frame rate : 30.000 FPS
Color space : YUV
Chroma subsampling : 4:2:0
Bit depth : 8 bits
Scan type : Progressive
Bits/(Pixel*Frame) : 0.128
Stream size : 2.52 GiB (94%)
Language : English
Codec configuration box : avcC

Audio
ID : 2
Format : AAC LC
Format/Info : Advanced Audio Codec Low Complexity
Codec ID : mp4a-40-2
Duration : 3 h 1 min
Bit rate mode : Constant
Bit rate : 127 kb/s
Channel(s) : 2 channels
Channel layout : L R
Sampling rate : 44.1 kHz
Frame rate : 43.066 FPS (1024 SPF)
Compression mode : Lossy
Stream size : 165 MiB (6%)
Title : Stereo
Language : English
Default : Yes
Alternate group : 1

 

 

 

 

 

 

Watch online

 

 

Waiting finish converting video

 

 

Server 1

 

 

 

 

 

 

 

watch now

 

 

 

 

 

 

Server 2

 

 

 

 

 

 

 

 

 

 

Server–3

 

 

 

 

 

 

 

 

 

 

Server 4

 

 

 

 

 

 

 

 

 

 

 

Watch AAW Windy City Classic XV 2019 540p DX-TV

 

 

 

Uploaded By Site DX-TV.com

 

 

 

 

Download VIP Members FTP Link and Free Links 

[member]

Limited Time will be removed after 20 days if you need available again pm email admin

 

 

Limited Time will be removed after 20 days if you need available again pm email admin

 

 

FTP Link Download high speed

 

 

 

1fichier.com 

 

 

[/member]

 

 

Download with premium account Links 

 

 

earn4files.com

 

 

nitroflare.com

 

 

rapidgator.net

 

 

uploaded.net

 

 

 

 

 

 

 

 

 

 103 total views,  1 views today

%d bloggers like this:
Optimized with PageSpeed Ninja