Watch AAW Windy City Classic XV 2019 1080p DX-TV

Watch AAW Pro Wrestling Windy City Classic XV 2019 1080p DX-TV

 

 

AAW

 

 

 

 

dx-tv.com

 

 

 

 

Watch AAW Windy City Classic XV 2019 1080p DX-TV

 

 

 

 

 

Complete name : AAW Pro Wrestling Windy City Classic XV 2019 1080p WEB x264 DX-TV.mp4
Format : MPEG-4
Format profile : Base Media
Codec ID : mp42 (mp42)
File size : 3.92 GiB
Duration : 3 h 1 min
Overall bit rate : 3 099 kb/s

Video
ID : 1
Format : AVC
Duration : 3 h 1 min
Bit rate : 2 985 kb/s
Width : 1 920 pixels
Height : 1 080 pixels
Display aspect ratio : 16:9
Frame rate mode : Constant
Frame rate : 30.000 FPS
Color space : YUV
Chroma subsampling : 4:2:0
Bit depth : 8 bits
Scan type : Progressive
Bits/(Pixel*Frame) : 0.048
Stream size : 3.78 GiB (96%)
Language : English
Codec configuration box : avcC

Audio
ID : 2
Format : AAC LC
Codec ID : mp4a-40-2
Duration : 3 h 1 min
Source duration : 3 h 1 min
Bit rate mode : Constant
Bit rate : 107 kb/s
Channel(s) : 2 channels
Channel layout : L R
Sampling rate : 44.1 kHz
Frame rate : 43.066 FPS (1024 SPF)
Compression mode : Lossy
Stream size : 138 MiB (3%)
Source stream size : 138 MiB (3%)
Title : Stereo
Language : English
Default : Yes
Alternate group : 1

 

 

 

 

 

 

Watch online

 

 

Waiting finish converting video

 

 

Server 1

 

 

 

 

 

 

 

watch now

 

 

 

 

 

 

Server 2

 

 

 

 

 

 

 

 

 

 

Server–3

 

 

 

 

 

 

 

 

 

 

Server 4

 

 

 

 

 

 

 

 

 

 

 

Watch AAW Windy City Classic XV 2019 1080p DX-TV

 

 

 

Uploaded By Site DX-TV.com

 

 

 

 

Download VIP Members FTP Link and Free Links 

 

[member]

 

 

FTP Link high speed download

 

 

FTP Link Download high speed

 

 

1fichier.com 

 

 

dl.free.fr

 

 

earn4files.com

 

[/member]

 

 

Download with premium account Links 

 

 

 

nitroflare.com

 

 

rapidgator.net

 

 

uploaded.net

 

 

 

 

 

 

 

 

 

 58 total views,  1 views today

6 thoughts on “Watch AAW Windy City Classic XV 2019 1080p DX-TV

  1. Why does the rapidgator link Doesnt work ? Only get redirected to 2421 other Sites

    1. I checked all links now it’s working fine

      all links on shortner links to help us from simple money after finish that the main links RG will open

      anyway next time will add all links premium speed without shortner links

      and now i add RG main link direct without shortner link

      check now

Comments are closed.

%d bloggers like this:
Optimized with PageSpeed Ninja