Watch AAW The Art Of War 2020 02 21

Watch AAW The Art Of War 2020 02 21 DX-TV

AAW

 AAW

 

 

Watch AAW The Art Of War 2020 02 21

 

Complete name : AAW.2020.02.21.The.Art.Of.War.2020.510p.WEB.h264-COYB.mp4
Format : MPEG-4
Format profile : Base Media
Codec ID : isom
File size : 1.86 GiB
Duration : 3 h 32 min
Overall bit rate mode : AAW
Overall bit rate : 1 252 kb/s

Video
ID : 1
Format : AVC
Duration : 3 h 32 min
Source duration : 3 h 32 min
Bit rate : 1 115 kb/s
Width : 912 pixels
Original width : 906 pixels
Height : 506 pixels
Original height : 510 pixels
Display aspect ratio : 16:9
Frame rate mode : AAW
Frame rate : 23.976 (23976/1000) FPS
Minimum frame rate : 4.795 FPS
Maximum frame rate : 71.942 FPS
Color space : YUV
Chroma subsampling : 4:2:0
Bit depth : 8 bits
Scan type : AAW
Bits/(Pixel*Frame) : 0.101
Stream size : 1.65 GiB (89%)
Source stream size : 1.65 GiB (89%)
mdhd_Duration : 12725296
Codec box : AAW

Audio
ID : 2
Format : AAC LC
Format/Info : AAW
Codec ID : mp4a-40-2
Duration : 3 h 32 min
Source duration : 3 h 32 min
Bit rate mode : Variable
Bit rate : 128 kb/s
Maximum bit rate : 206 kb/s
Channel(s) : 2 channels
Channel layout : AAW
Sampling rate : 48.0 kHz
Frame rate : 46.875 FPS (1024 SPF)
Compression mode : Lossy
Stream size : 194 MiB (10%)
mdhd_Duration : AAW

 

 

 

Watch online

 

 

Server 1

 

 

 

 

watch now

 

 

 

 

Server 2

 

 

 

watch now

 

 

 

Watch AAW The Art Of War 2020 02 21

 

 

Uploaded By Site DX-TV.com

 

 

Download with Free LinksĀ 

 

 

1fichier.com

 

 

DDL.to

 

 

rockfile.co

 

 

 

Download with premium account LinksĀ 

 

 

Keep2Share

 

 

nitroflare.com

 

 

rapidgator.net

 

 

uploadgig.com

 

 

urlfree.net
dx-tv.com

 

 72 total views,  1 views today

Leave a Reply

Your email address will not be published. Required fields are marked *

This site uses Akismet to reduce spam. Learn how your comment data is processed.

%d bloggers like this:
Optimized with PageSpeed Ninja