Watch AAW Alive 2020 10 01-29/11-12 Full 3 Night DX-TV

Watch AAW Alive 2020 10 01-29/11-12 Full 3 Night DX-TV

Watch AAW Alive 2020

 Watch AAW Alive 2020

 

[su_expand more_text=”Show More Info” less_text=”Close all Info” height=”30″ text_color=”#000000″ link_color=”#e25f8b” link_style=”button” more_icon=”icon: arrow-down” less_icon=”icon: arrow-up”]

 

Complete name : AAW.2020.10.01.Alive.1.WEB.h264-NCMP.mp4
Format : MPEG-4
Format profile : Base Media
Codec ID : isom
File size : 1.66 GiB
Duration : 2 h 41 min
Overall bit rate : 1 472 kb/s
Writing application : Lavf57.72.101

Watch AAW Alive 2020

Video
ID : 1
Format : AVC
Duration : 2 h 41 min
Bit rate : 1 335 kb/s
Width : 960 pixels
Height : 540 pixels
aspect ratio : 16:9
rate mode : Variable
Frame rate : 29.970 FPS
Color space : YUV
Chroma subsampling : 4:2:0
Bit depth : 8 bits
Scan type : Progressive
Bits/(Pixel*Frame) : 0.086
Stream size : 1.51 GiB
Color range : Limited
Color primaries : BT.709
Transfer characteristics : BT.709
Matrix coefficients : BT.709
Codec configuration box : avc

Watch AAW Alive 2020

Audio
ID : 2
Format : AAC LC
Format/Info : Advanced Audio
Codec ID : mp4a-40-2
Duration : 2 h 41 min
Bit rate mode : Constant
Bit rate : 128 kb/s
Channel(s) : 2 channels
Channel layout : L R
Sampling rate : 48.0 kHz
Frame rate : 46.875 FPS
Compression mode : Lossy
Stream size : 148 MiB
Default : Yes
Alternate group : 1

Complete name : AAW.2020.10.29.Alive.2.WEB.h264-NCMP.mp4
Format : MPEG-4
Format profile : Base Media
Codec ID : isom
File size : 1.73 GiB
Duration : 2 h 48 min
Overall bit rate : 1 467 kb/s
Writing application : Lavf57.72.101

Watch AAW Alive 2020

Video
ID : 1
Format : AVC
Duration : 2 h 48 min
Bit rate : 1 330 kb/s
Width : 960 pixels
Height : 540 pixels
aspect ratio : 16:9
Frame rate mode : Variable
Frame rate : 30.000 FPS
Color space : YUV
Chroma subsampling : 4:2:0
Bit depth : 8 bits
Scan type : Progressive
Bits/(Pixel*Frame) : 0.086
Stream size : 1.57 GiB
Color range : Limited
Color primaries : BT.709
Transfer characteristics : BT.709
Matrix coefficients : BT.709
Codec configuration box : avc

 AAW Alive 2020

Audio
ID : 2
Format : AAC LC
Format/Info : Advanced Audio
Codec ID : mp4a-40-2
Duration : 2 h 48 min
Bit rate mode : Constant
Bit rate : 128 kb/s
Channel(s) : 2 channels
Channel layout : L R
Sampling rate : 48.0 kHz
Frame rate : 46.875 FPS
Compression mode : Lossy
Stream size : 154 MiB (9%)
Default : Yes
Alternate group : 1

Complete name : AAW.2020.11.12.Alive.3.WEB.h264-NCMP.mp4
Format : MPEG-4
Format profile : Base Media
Codec ID : isom
File size : 1.50 GiB
Duration : 2 h 51 min
Overall bit rate : 1 253 kb/s
Writing application : Lavf57.72.101

 AAW Alive 2020

Video
ID : 1
Format : AVC
Duration : 2 h 51 min
Bit rate : 1 117 kb/s
Width : 906 pixels
Height : 510 pixels
aspect ratio : 16:9
Frame rate mode : Variable
Frame rate : 30.000 FPS
Color space : YUV
Chroma subsampling : 4:2:0
Bit depth : 8 bits
Scan type : Progressive
Bits/(Pixel*Frame) : 0.081
Stream size : 1.33 GiB
Color range : Limited
Color primaries : BT.709
Transfer characteristics : BT.709
Matrix coefficients : BT.709
Codec configuration box : avc

 AAW Alive 2020

Audio
ID : 2
Format : AAC LC
Format/Info : Advanced Audio
Codec ID : mp4a-40-2
Duration : 2 h 51 min
Bit rate mode : Constant
Bit rate : 128 kb/s
Channel(s) : 2 channels
Channel layout : L R
Sampling rate : 48.0 kHz
Frame rate : 46.875 FPS
Compression mode : Lossy
Stream size : 157 MiB
Default : Yes
Alternate group : 1

 

 

[/su_expand]

 

 

Watch online

 

Server 1

 

 

 

 

Watch AAW Alive 2020

watch now

Watch AAW Alive 2020

 

 

 

 

Server-2

 

 

 

Watch AAW Alive 2020

watch now

Watch AAW Alive 2020

 

 

 

 

Uploaded By Site DX-TV.com

 

Download Links with premium High Speed   

 

 

 

 

dropapk.to

http://shrt10.com/563awO7Z
http://shrt10.com/0G82lh8HZ
http://shrt10.com/YshFN

 

 

nitroflare.com

http://shrt10.com/xnj7g
http://shrt10.com/DxCTxvXJo
http://shrt10.com/GcmTlU

 

 

rapidgator.net

http://shrt10.com/GYLU4
http://shrt10.com/M8jdwNB
http://shrt10.com/AopjZ

 

 

uploaded.net

http://shrt10.com/18YeIGY
http://shrt10.com/MqwM6v
http://shrt10.com/Or6aPeC1

 

 

uploadgig.com

http://shrt10.com/4iDOgsdRg
http://shrt10.com/FQPcn
http://shrt10.com/zFvy7WoG

 

https://dx-tv.com/final-njpw-summer-struggle-2020-day-8/

You May Also Like

Leave a Reply

Your email address will not be published. Required fields are marked *

This site uses Akismet to reduce spam. Learn how your comment data is processed.