Watch AAW 2019 03 16 Hell Hath No Fury 720p WEB iNDYHEEL Full Show mp4

Watch AAW 2019 03 16 Hell Hath No Fury 720p WEB iNDYHEEL Full Show mp4

 

 

 

 


 

 

 

dx-tv.com

 

 

 

 

Complete name : AAW.2019.03.16.Hell.Hath.No.Fury.720p.WEB.h264-iNDYHEEL.mp4
Format : MPEG-4
Format profile : Base Media
Codec ID : isom
File size : 2.69 GiB
Duration : 2h 54mn
Overall bit rate : 2 203 Kbps
Writing application : Lavf58.23.101

Video
ID : 1
Format : AVC
Format/Info : Advanced Video Codec
Format settings, ReFrames : 3 frames
Codec ID : avc1
Codec ID/Info : Advanced Video Coding
Duration : 3h 2mn
Bit rate mode : Variable
Bit rate : 1 979 Kbps
Width : 1 280 pixels
Height : 720 pixels
Display aspect ratio : 16:9
Frame rate mode : Variable
Color space : YUV
Chroma subsampling : 4:2:0
Bit depth : 8 bits
Scan type : Progressive
Stream size : 2.52 GiB (94%)

Audio
ID : 2
Format : AAC
Format/Info : Advanced Audio Codec
Format profile : LC
Codec ID : 40
Duration : 2h 54mn
Bit rate mode : Variable
Bit rate : 128 Kbps
Maximum bit rate : 149 Kbps
Channel(s) : 2 channels
Channel positions : Front: L R
Sampling rate : 48.0 KHz
Compression mode : Lossy
Stream size : 160 MiB (6%)

 

 

 

 

 


 

 

 

Watch AAW 2019 03 16 Hell Hath No Fury 720p WEB iNDYHEEL Full Show mp4

 

 

 

 

Watch online

 

 

Waiting finish converting video

 

 

Server 1

 

 

 

 

 

 

 

 

 


 

 

 

 

Server 2

 

 

 

 

 


 

 

 

 


 

 

 

Uploaded By Site DX-TV.com

 

 

 

open rar file to see this password

 

 

 

 

The password : DX-TV.com

 

 

 

 

Uploaded.net + rapidgator.net

 

 

 

 


 

 

 

https://shrt10.com/Q1hv

 

 

 

 
https://shrt10.com/XrGS
 

 

 

Watch AAW 2019 03 16 Hell Hath No Fury 720p WEB iNDYHEEL Full Show mp4

You might like

@ 2023 DX-TV.COM