Watch AAW 2018 08 04 Jawbreaker WEB NCMP /720p

Watch AAW 2018 08 04 Jawbreaker WEB NCMP /720p

 

 

 

 


 

 

 

dx-tv.com

 

 

 

 

Complete name : AAW.2018.08.04.Jawbreaker.WEB.h264-NCMP.mp4
Format : MPEG-4
Format profile : Base Media
File size : 1.96 GiB
Duration : 2 h 57 min
Overall bit rate : 1 585 kb/s
Writing application : Lavf55.12.100

Video
ID : 2
Format : AVC
Duration : 2 h 57 min
Bit rate : 1 495 kb/s
Width : 854 pixels
Height : 480 pixels
Display aspect ratio : 16:9
Frame rate mode : Constant
Frame rate : 29.970
Color space : YUV
Chroma subsampling : 4:2:0
Bit depth : 8 bits
Scan type : Progressive
Bits/(Pixel*Frame) : 0.122
Stream size : 1.85 GiB (94%)

Audio
ID : 1
Format : AAC
Format/Info : Advanced Audio Codec
Format profile : LC
Codec ID : mp4a-40-2
Duration : 2 h 57 min
Bit rate mode : Constant
Bit rate : 83.0 kb/s
Channel(s) : 2 channels
Channel positions : Front: L R
Sampling rate : 48.0 kHz
Frame rate : 46.875 FPS
Compression mode : Lossy
Stream size : 105 MiB (5%)

 

 

 

 

Complete name : AAW.2018.08.04.Jawbreaker.720p.WEB.h264-NCMP.mp4
Format : MPEG-4
Format profile : Base Media
File size : 3.31 GiB
Duration : 2 h 57 min
Overall bit rate : 2 679 kb/s
Writing application : Lavf55.12.100

Video
ID : 2
Format : AVC
Duration : 2 h 57 min
Bit rate : 2 589 kb/s
Width : 1 280 pixels
Height : 720 pixels
Display aspect ratio : 16:9
Frame rate mode : Constant
Frame rate : 29.970
Color space : YUV
Chroma subsampling : 4:2:0
Bit depth : 8 bits
Scan type : Progressive
Bits/(Pixel*Frame) : 0.094
Stream size : 3.20 GiB (97%)

Audio
ID : 1
Format : AAC
Format/Info : Advanced Audio Codec
Format profile : LC
Codec ID : mp4a-40-2
Duration : 2 h 57 min
Bit rate mode : Constant
Bit rate : 83.0 kb/s
Channel(s) : 2 channels
Channel positions : Front: L R
Sampling rate : 48.0 kHz
Frame rate : 46.875 FPS
Compression mode : Lossy
Stream size : 105 MiB (3%)

 

 

 

 

 

 

Watch AAW 2018 08 04 Jawbreaker WEB NCMP /720p

 

 

 

 

Watch online

 

 

Waiting finish converting video

 

 

Server 1

 

 

 

 

 

 

 

 

 

 

 

 

 

 

Server 2

 

 

 

 

 

 

 


 

 

 

 

 

 

Uploaded By Site DX-TV.com

 

 

 

open rar file to see this password

 

 

 

 

The password : DX-TV.com

 

 

 

 

Uploaded.net + rapidgator.net

 

 

 

 

 

 
http://shrt10.com/tMmu1Ix
 

 

 

 
http://shrt10.com/jNsgx

 

 

 

http://shrt10.com/d6vWJ
 

 

 

 

http://shrt10.com/DZ6xW
 

 

 

 

 

Watch AAW 2018 08 04 Jawbreaker WEB NCMP /720p