Watch AAW 2018 02 03 The Chaos Theory WEB NCMP /720p

Watch AAW 2018 02 03 The Chaos Theory WEB NCMP /720p

 

 

 

 

 

 

wwe

 

 

 

 

 

 
Complete name : AAW.2018.02.03.The.Chaos.Theory.WEB.h264-NCMP.mp4
Format : MPEG-4
Format profile : Base Media
Codec ID : isom
File size : 1.97 GiB
Duration : 2h 57mn
Overall bit rate : 1 588 Kbps
Writing application : Lavf55.12.100

Video
ID : 2
Format : AVC
Format/Info : Advanced Video Codec
Codec ID : avc1
Codec ID/Info : Advanced Video Coding
Duration : 2h 57mn
Bit rate mode : Variable
Bit rate : 1 495 Kbps
Width : 854 pixels
Height : 480 pixels
Display aspect ratio : 16:9
Frame rate mode : Constant
Frame rate : 29.970 fps
Color space : YUV
Chroma subsampling : 4:2:0
Bit depth : 8 bits
Scan type : Progressive
Bits/(Pixel*Frame) : 0.122
Stream size : 1.86 GiB (94%)

Audio
ID : 1
Format : AAC
Format/Info : Advanced Audio Codec
Format profile : LC
Codec ID : 40
Duration : 2h 57mn
Bit rate mode : Variable
Bit rate : 86.2 Kbps
Maximum bit rate : 88.9 Kbps
Channel(s) : 2 channels
Channel positions : Front: L R
Sampling rate : 48.0 KHz
Compression mode : Lossy
Stream size : 110 MiB (5%)

 

 

 

 

 

 

 
2/3/18 – The Chaos Theory – AAW Pro
Video Duration: 02:57:40

The Chaos Theory
2/3/18
Knights of Columbus – LaSalle, IL

1. Trey Miguel vs.Myron Reed

2. Oi4K (Dave & Jake Crist) vs. Zero Gravity (CJ Esparza & Brektt Gakiya)

3. Trevor Lee vs. Shane Strickland

4. Danhausen vs. Dante Leon vs. Sage Cainan vs. Gringo Loco vs. Ace Romero vs. Space Monkey vs. MJF

5. Jeff Cobb vs. AR Fox

6. Sami Callihan vs. Matt Riddle

7. Mat Fitchett, PACO, Kody Rice, & Mike Hartenbower vs. Curt Stallion, Jake Something, BRUBAKER, & Connor Braxton

8. Eddie Kingston vs. Penta El Zero M

9. AAW Women’s Championship: Rosemary vs. Jessicka Havok(c)

10. AAW Heavyweight Championship: ACH vs. Rey Fenix(c)
 

 

 

 

 

 

Watch AAW 2018 02 03 The Chaos Theory WEB NCMP /720p

 

 

 

 

Watch online

 

 

Waiting finish converting video

 

 

Server 1

 

 

 

 

 

 

 

 

 

 

 

 

 

 

 

Server 2

 

 

 

 

 

 

 

 

 

 

 

 

 

 

 

 

Uploaded By Site DX-TV.com

 

 

 

open rar file to see this password

 

 

 

 

The password is : DX-TV.com

 

 

 

 

400p+720p

 

 

 

 

 

Uploaded.net + rapidgator.net

 

 

 

 

 

 

http://shrt10.com/4bqF

 

 

http://shrt10.com/ve1YSrMW

 

 

http://shrt10.com/hgziVD

 

 

http://shrt10.com/XyQNoFE

 

 

 

 

 

 

Watch AAW 2018 02 03 The Chaos Theory WEB NCMP /720p