Watch AAA Triplemania XXVI 720p English

Watch AAA Triplemania XXVI 720p English

 

 

 

 


 

 

 

dx-tv.com

 

 

 

 

 

 

Complete name : AAA.Triplemania.XXVI.mp4
Format : MPEG-4
Format profile : Base Media
Codec ID : isom (isom/iso2/avc1/mp41)
File size : 5.02 GiB
Duration : 5 h 24 min
Overall bit rate mode : Variable
Overall bit rate : 2 217 kb/s
Writing application : Lavf58.12.100

Video
ID : 1
Format : AVC
Format/Info : Advanced Video Codec 
Codec ID/Info : Advanced Video Coding
Duration : 5 h 24 min
Bit rate : 2 077 kb/s
Width : 1 280 pixels
Height : 720 pixels
Display aspect ratio : 16:9
Frame rate mode : Variable
Frame rate : 29.970 (29970/1000) FPS
Color space : YUV
Chroma subsampling : 4:2:0
Bit depth : 8 bits
Scan type : Progressive
Bits/(Pixel*Frame) : 0.075
Stream size : 4.70 GiB (94%)

Audio
ID : 2
Format : AAC
Format/Info : Advanced Audio Codec
Format profile : LC
Codec ID : mp4a-40-2
Duration : 5 h 24 min
Bit rate mode : Variable
Bit rate : 128 kb/s
Maximum bit rate : 131 kb/s
Channel(s) : 2 channels
Channel positions : Front: L R
Sampling rate : 48.0 kHz
Frame rate : 46.875 FPS (1024 SPF)
Compression mode : Lossy
Stream size : 297 MiB (6%)
Default : Yes
Alternate group : 1

 

 

 

Watch AAA Triplemania XXVI 720p English

 

 

 

 

Watch online

 

 

Waiting finish converting video

 

 

Server 1

 

 

 

 

 

 

 

 

 

 

 

 

 

 

 

 

 

 

 

 

Server 2

 

 

 

 

 

 

 


 

 

 

 

 

 

Uploaded By Site DX-TV.com

 

 

 

open rar file to see this password

 

 

 

 

The password : DX-TV.com

 

 

 

 

Uploaded.net + rapidgator.net

 

 

 

 

 

http://shrt10.com/ke5Li
 

 

 

http://shrt10.com/ICl2H3a
 

 

 

http://shrt10.com/n2DM6

 

 

 
http://shrt10.com/84RW5I
 

 

 

 

 

 

Watch AAA Triplemania XXVI 720p English