Watch AAA 2019 11 09 Conquista Total Gira

Watch AAA 2019 11 09 Conquista Total Gira 720p DX-TV

 

 

 

 

 

 

dx-tv.com

 

 

 

 

Watch AAA 2019 11 09 Conquista Total Gira

 

 

 

 

 

Complete name : AAA.2019.11.09.Conquista.Total.Gira.720p.WEB.x264-0M1077.mp4
Format : MPEG-4
Format profile : Base Media
Codec ID : isom
File size : 4.34 GiB
Duration : 2 h 50 min
Overall bit rate : 3 642 kb/s
Writing application : Lavf58.26.101

Video
ID : 1
Format : AVC
Format/Info : Advanced Video Codec
Codec ID : avc1
Codec ID/Info : Advanced Video Coding
Duration : 2 h 50 min
Bit rate : 3 502 kb/s
Width : 1 280 pixels
Height : 720 pixels
Display aspect ratio : 16:9
Frame rate mode : Variable
Frame rate : 29.970 (30000/1001) FPS
Minimum frame rate : 29.412 FPS
Maximum frame rate : 30.303 FPS
Color space : YUV
Chroma subsampling : 4:2:0
Bit depth : 8 bits
Scan type : Progressive
Bits/(Pixel*Frame) : 0.127
Stream size : 4.18 GiB (96%)
Codec configuration box : avcC

Audio
ID : 2
Format : AAC LC
Format/Info : Advanced Audio Codec Low Complexity
Codec ID : mp4a-40-2
Duration : 2 h 50 min
Bit rate mode : Constant
Bit rate : 128 kb/s
Channel(s) : 2 channels
Channel layout : L R
Sampling rate : 48.0 kHz
Frame rate : 46.875 FPS (1024 SPF)
Compression mode : Lossy
Stream size : 157 MiB (4%)
Default : Yes
Alternate group : 1

 

 

 

 

 

 

Watch online

 

 

Waiting finish converting video

 

 

Server 1

 

 

 

 

 

 

 

 

 

 

 

 

 

Server 2

 

 

 

 

 

 

 

 

 

 

 

 

 

 

 

Uploaded By Site DX-TV.com

 

 

 

 

 

Watch AAA 2019 11 09 Conquista Total Gira

 

 

 

 

 

 

Recommended For Free

 

 

 

 

earn4files.com

 

 

 

 

Download with high speed with Premium account

 

 

 

 

nitroflare.com

 

 

 

rapidgator.net

 

 

 

uploaded.net

 

 

 

 

 

Leave a Reply

Your email address will not be published. Required fields are marked *

This site uses Akismet to reduce spam. Learn how your comment data is processed.