Watch 720p WWE Raw 2020 10 19 Full Show Online

WWE Raw 2020 10 19 720p HDTV Start DX-TV

 

Watch WWE Raw

 

 Watch 720p WWE Raw
 


 

 

Watch 720p WWE Raw 2020 10 19 Full Show Online

 

The Hurt Business def. RETRIBUTION

RETRIBUTION’s night was just beginning, though, as The Hurt Business arrived for their Eight-Man Tag Team Match.

United States Champion Bobby Lashley was on fire from the opening bell, as he steamrolled T-BAR and SLAPJACK. But RETRIBUTION would not be kept down, as Mustafa Ali pummeled Cedric Alexander. Lashley cinched in the Hurt Lock on T-BAR, who tapped out to give The Hurt Business the victory.

But as soon as the bell rang, both factions learned that something more malevolent is waiting in the wings. The lights were cut out once again, and when they came back on, The Fiend was there. The Fiend bulldozed through most of RETRIBUTION, as Ali escaped after T-BAR went after the terrifying Superstar.

When he was through with RETRIBUTION, The Fiend turned his attention to The Hurt Business, perhaps letting them – and the rest of Raw – know that this is his playground now.

Watch WWE Raw

Complete name : WWE.Monday.Night.Raw.2020.10.19.720p.HDTV.x264-Star.mkv
Format : Matroska
Format version : Version 4
File size : 4.56 GiB
Duration : 2 h 5 min
Overall bit rate : 5 218 kb/s
Writing library : Lavf58.29

Watch WWE Raw

Video
ID : 1
Format : AVC
Duration : 2 h 5 min
Bit rate : 5 000 kb/s
Width : 1 280 pixels
Height : 720 pixels
Display aspect ratio : 16:9
Frame rate mode : Constant
Frame rate : 29.970 FPS
Color space : YUV
Chroma sampling : 4:2:0
Bit depth : 8 bits
Scan type : Progressive
Bits/(Pixel*Frame) : 0.181
Stream size : 4.30 GiB (94%)
Color range : Limited
Color primaries : BT.709
Transfer characteristics : BT.709
Matrix coefficients : BT.709

Watch WWE Raw

Audio
ID : 2
Format : AC-3
Format/Info : Audio Coding 3
Commercial name : Dolby Digital
Codec ID : A_AC3
Duration : 2 h 5 min
Bit rate mode : Constant
Bit rate : 192 kb/s
Channel(s) : 2 channels
Channel layout : L R
Sampling rate : 48.0 kHz
Frame rate : 31.250 FPS (1536 SPF)
Compression mode : Lossy
Delay relative to video : -5 ms
Stream size : 172 MiB (4%)
Title : Stereo
Service kind : Complete Main
Default : Yes
Forced : No

 

Watch 720p WWE Raw 2020 10 19 Full Show Online

 

Watch online

 

 

Server 1

 

 

 

 

Watch WWE Raw

 

 

 

 

Server-2

 

 

 

watch now

 

 

 

 

Server-3

 

 

 

watch now

 

 

 

 

Uploaded By Site DX-TV.com

 

 

 

 

Download Free Links with normal and high Speed [ more 14 hosts ]  

 

[su_expand more_text=”Show Hosts Info” less_text=”Close all Info” height=”30″ text_color=”#000000″ link_color=”#e25f8b” link_style=”button” more_icon=”icon: arrow-down” less_icon=”icon: arrow-up”]

 

Watch WWE Raw

hexupload.net – clicknupload.co – www.multiup.org – uptobox.com – anonfiles.com – userscloud.com –

dropapk.to alfafile.net – ddownload.com – rockfile.co – 1fichier.com – filedown.org – katfile.com – filerio.in

 

 

[/su_expand]

 

 

http://shrt10.com/lNmOw

 

 

 

 

Download Links with premium High Speed   

 

 

 

 

dropapk.to

 

 

 

nitroflare.com

 

 

 

rapidgator.net

 

 

 

uploaded.net

 

 

 

uploadgig.com

 

 

 

 

 

dx-tv.com

 

urlfree.net

Leave a Reply

Your email address will not be published. Required fields are marked *

This site uses Akismet to reduce spam. Learn how your comment data is processed.