Watch 720p iMPACT Wrestling 2020 10 20 Full Show

iMPACT Wrestling 2020 10 20 720p HDTV Star DX-TV

 

Watch Wrestling

 

 Watch Wrestling
 


 

 

Watch 720p iMPACT Wrestling 2020 10 20 Full Show

 

 

Sami Callihan vs Eddie Edwards

An intense rivalry is renewed just days before Edwards collides with Ken Shamrock at Bound For Glory.

Edwards dives through the ropes with a burst of speed, crashing into on the ramp.

Edwards slingshots over the top but Callihan avoids it, allowing him to gain control in a brawl outside the ring.

hits a Blue Thunder Bomb out of the corner for two. Both competitors exchange strong strikes in the middle of the ring.

Callihan gets the upperhand with a powerbomb for two. Edwards comes back with a Tiger Driver for yet another near fall. As Edwards attempts the Boston Knee Party,

Callihan grabs his phone and turns out the lights. When they come back on, Shamrock is standing on the apron. rolls up Edwards off the distraction to steal the win.

Watch Wrestling

Sami Callihan def Eddie Edwards

After the match, Shamrock locks in the Ankle Lock and lays out the former World Champion.

Rohit Raju defends the X-Division Title against Jordynne Grace, Willie Mack, TJP, Chris Bey and Trey Miguel in a Six-Way Scramble this Saturday at Bound For Glory!

Watch Wrestling

Complete name : .iMPACT.Wrestling.2020.10.20.720p.HDTV.x264-Star.mkv
Format : Matroska
Format version : Version 4
File size : 3.03 GiB
Duration : 1 h 23 min
Overall bit rate : 5 215 kb/s

Watch Wrestling

Video
ID : 1
Format : AVC
Codec ID : V_MPEG4/ISO/AVC
Duration : 1 h 23 min
Bit rate : 5 000 kb/s
Width : 1 280 pixels
Height : 720 pixels
Display aspect ratio : 16:9
Frame rate mode : Constant
rate : 29.970 (30000/1001) FPS
Color space : YUV
Chroma sampling : 4:2:0
Bit depth : 8 bits
Scan type : Progressive
Bits/(Pixel*Frame) : 0.181
Stream size : 2.86 GiB (94%)
Forced : No
Color range : Limited
Color primaries : BT.709
Transfer characteristics : BT.709
Matrix coefficients : BT.709

Watch Wrestling

Audio
ID : 2
Format : AC-3
Format/Info : Audio Coding 3
Commercial name : Dolby Digital
Codec ID : A_AC3
Duration : 1 h 23 min
Bit rate mode : Constant
Bit rate : 192 kb/s
Channel(s) : 2 channels
Channel layout : L R
Sampling rate : 48.0 kHz
Frame rate : 31.250 FPS (
Compression mode : Lossy
Delay relative to video : -5 ms
Stream size : 114 MiB (4%)
Title : Stereo
Service kind : Complete Main
Default : Yes
Forced : No

 

 

 

Watch 720p iMPACT Wrestling 2020 10 20 Full Show

 

 

 

 

Watch online

 

 

 

 

 

Server 1

 

 

 

 

Watch Wrestling

 

 

 

 

Server-2

 

 

 

watch now

 

 

 

 

Server-3

 

 

 

watch now

 

 

 

 

Uploaded By Site DX-TV.com

 

 

 

 

Download Free Links with normal and high Speed [ more 14 hosts ]  

 

[su_expand more_text=”Show Hosts Info” less_text=”Close all Info” height=”30″ text_color=”#000000″ link_color=”#e25f8b” link_style=”button” more_icon=”icon: arrow-down” less_icon=”icon: arrow-up”]

 

Watch Wrestling

hexupload.net – clicknupload.co – www.multiup.org – uptobox.com – anonfiles.com – userscloud.com –

dropapk.to alfafile.net – ddownload.com – rockfile.co – 1fichier.com – filedown.org – katfile.com – filerio.in

 

 

[/su_expand]

 

 

 

 

 

 

 

Download Links with premium High Speed   

 

 

 

dropapk.to

 

 

 

nitroflare.com

 

 

 

rapidgator.net

 

 

 

uploaded.net

 

 

 

uploadgig.com

 

 

 

 

 

dx-tv.com

 

urlfree.net

Leave a Reply

Your email address will not be published. Required fields are marked *

This site uses Akismet to reduce spam. Learn how your comment data is processed.