Watch 720p iMPACT Wrestling 2020 09 29 free

iMPACT Wrestling 2020 09 29 720p HDTV NWCHD DX-TV

 

iMPACT Wrestling

 

 iMPACT Wrestling 2020 09 29
 


 

 

Watch 720p iMPACT Wrestling 2020 09 29 free

 

 

Johnny Swinger vs Fallah Bahh – Winner Becomes John E Bravo’s Best Man

The groomsmen and bridal party for the wedding of John E Bravo and Rosemary are at ringside for this match where the winner will officially become Bravo’s best man. Fallah was originally selected by Bravo but Swinger wants the spot for himself.

iMPACT Wrestling

Fallah corners Swinger and pummels him with chops, then follows up with a back body drop. Swinger attempts to powerslam the big man but to no avail. Fallah hits a leg drop for two. Swinger stomps on the hand of Cody Deaner at ringside. Deaner gets up on the apron, inadvertently distracting the referee. Swinger uses Crazzy Steve’s monkey as a weapon to defeat Fallah and become Bravo’s best man.

Johnny Swinger def Fallah Bahh – Winner Becomes John E Bravo’s Best Man

iMPACT Wrestling

After the match, John E Bravo gets on the mic and orders referee Brandon Tolle to restart the match after informing him that Swinger cheated.

Johnny Swinger vs Fallah Bahh is Restarted – Winner Becomes John E Bravo’s Best Man

Fallah sits on Swinger in the corner to pick up the quick win and retain his title of Bravo’s best man.

Watch 720p iMPACT Wrestling

Complete name : iMPACT.Wrestling.2020.09.29.720p.HDTV.x264-NWCHD.mp4
Format : MPEG-4
Format profile : Base Media
Codec ID : isom
File size : 2.78 GiB
Duration : 1 h 25 min
Overall bit rate : 4 639 kb/s
Writing application : Lavf58 

iMPACT Wrestling

Video
ID : 1
Format : AVC
Duration : 1 h 25 min
Bit rate : 4 500 kb/s
Width : 1 280 pixels
Height : 720 pixels
Display aspect ratio : 16:9
Frame rate mode : Variable
Frame rate : 29.970 (30000/1001) FPS 
Color space : YUV
Chroma subsampling : 4:2:0
Bit depth : 8 bits
Scan type : Progressive
Bits/(Pixel*Frame) : 0.163
Stream size : 2.66 GiB (96%)
Color primaries : BT.709
Transfer characteristics : BT.709
Matrix coefficients : BT.709
Codec configuration box : avcC

iMPACT Wrestling

Audio
ID : 2
Format : AAC LC
Format/Info : Advanced Audio Codec
Codec ID : mp4a-40-2
Duration : 1 h 25 min
Bit rate mode : Constant
Bit rate : 192 kb/s
Channel(s) : 2 channels
Channel layout : L R
Sampling rate : 48.0 kHz
Frame rate : 46.875 FPS (1024 SPF)
Compression mode : Lossy
Stream size : 118 MiB (4%)
Title : Stereo
Language : English
Default : Yes
Alternate group : 1

 

 

 

iMPACT Wrestling 2020 09 29 Full show free

 

 

 

 

Watch online

 

 

 

 

 

Server 1

 

 

 

 

watch now

 

 

 

 

Server-2

 

 

 

iMPACT Wrestling

 

 

 

 

Server-3

 

 

 

watch now

 

 

 

 

Uploaded By Site DX-TV.com

 

 

 

 

Download Free Links with normal and high Speed [ more 15 hosts ]  

 

 

 

http://shrt10.com/4PASl3rg
http://shrt10.com/8QyFriwiE
http://shrt10.com/J3BJQMI
http://shrt10.com/9zBh3
http://shrt10.com/gPcXy
http://shrt10.com/QvYvp
http://shrt10.com/lsaq4C
http://shrt10.com/GVSxGCgw
http://shrt10.com/aaAgd
http://shrt10.com/pfrKDfhr

 

 

 

 

Download Links with premium High Speed   

 

 

 

 

nitroflare.com

 

 

 

rapidgator.net

 

 

 

uploaded.net

 

 

 

uploadgig.com

 

 

 

 

 

dx-tv.com

 

urlfree.net

Leave a Reply

Your email address will not be published. Required fields are marked *

This site uses Akismet to reduce spam. Learn how your comment data is processed.