Watch ESPN 30 for 30 S03E28 Tommy 1080p AMZN

Watch ESPN 30 for 30 S03E28 Tommy 1080p AMZN

 

 

 

 

 

wwe

 

 

 

 

 

 

Complete name : 30.for.30.S03E28.Tommy.1080p.AMZN.WEB-DL.DD+2.0.H.264-AJP69.mkv
Format : Matroska
File size : 5.29 GiB
Duration : 1h 17mn
Overall bit rate : 9 707 Kbps

Video
ID : 1
Format : AVC
Format/Info : Advanced Video Codec
Codec ID : V_MPEG4/ISO/AVC
Duration : 1h 17mn
Bit rate mode : Variable
Bit rate : 9 290 Kbps
Maximum bit rate : 15.0 Mbps
Width : 1 920 pixels
Height : 1 080 pixels
Display aspect ratio : 16:9
Frame rate : 23.976 fps
Color space : YUV
Chroma subsampling : 4:2:0
Bit depth : 8 bits
Scan type : Progressive
Bits/(Pixel*Frame) : 0.187
Stream size : 5.06 GiB (96%)

Audio
ID : 2
Format : E-AC-3
Format/Info : Audio Coding 3
Codec ID : A_EAC3
Duration : 1h 17mn
Bit rate mode : Constant
Bit rate : 224 Kbps
Channel(s) : 2 channels
Channel positions : Front: L R
Sampling rate : 48.0 KHz
Compression mode : Lossy
Stream size : 125 MiB (2%)
Language : English

 

 

 

 

 

 

 

 

 

 

 

 

 

 

 

 

 

 

Watch ESPN 30 for 30 S03E28 Tommy 1080p AMZN

 

 

 

 

Watch online

 

 

Waiting finish converting video

 

 

Server 1

 

 

 

 

 

 

 

 

 

 

 

 

 

 

 

 

 

 

Server 2

 

 

 

 

 

 

 

 


 

 

 

 

Uploaded By Site DX-TV.com

 

 

 

open rar file to see this password

 

 

 

 

The password is : DX-TV.com

 

 

 

 

1080p

 

 

 

 

 

Uploaded.net + rapidgator.net

 

 

 

 

 

 

 

http://shrt10.com/Fvq949

 

http://shrt10.com/Jk7m

 

http://shrt10.com/Br5PmV

 

http://shrt10.com/i2ASf

 

 

 

 

 

 

 

 

 

Watch ESPN 30 for 30 S03E28 Tommy 1080p AMZN