Watch 1080p WWE 205 Live 31 07 2020

1080p WWE 205 Live 31 07 2020 DX-TV

 

Watch WWE 205
 WWE RAW

 

Watch 1080p WWE 205 Live 31 07 2020

 

 

 

Complete name : WWE.205.Live.2020.07.31.1080p.WEB.h264-HEEL.mp4
Format : MPEG-4
Format profile : Base Media
Codec ID : isom
File size : 1.23 GiB
Duration : 22 min 7 s
Overall bit rate mode : Variable
Overall bit rate : 7 955 kb/s
Writing application : Lavf58 

 1080p WWE 205 Live 31 07 2020

Video
ID : 1
Format : AVC
Duration : 22 min 7 s
Bit rate : 7 808 kb/s
Width : 1 920 pixels
Height : 1 080 pixels
Display aspect ratio : 16:9
Frame rate mode : Constant
Frame rate : 30.000 FPS
Color space : YUV
Chroma subsampling : 4:2:0
Bit depth : 8 bits
Scan type : Progressive
Bits/(Pixel*Frame) : 0.126
Stream size : 1.20 GiB (97%)

Watch  WWE 205 Live 31 07 2020

Audio
ID : 2
Format : AAC LC
Format/Info : Advanced
Codec ID : mp4a-40-2
Duration : 22 min 7 s
Bit rate mode : Variable
Bit rate : 192 kb/s
Maximum bit rate : 391 kb/s
Channel(s) : 2 channels
Channel layout : L R
Sampling rate : 48.0 kHz
Frame rate : 46.875 FPS (1024 SPF)
Compression mode : Lossy
Stream size : 30.5 MiB (2%)
Default : Yes
Alternate group : 1

 

 

Watch 1080p WWE 205 Live 31 07 2020

 

 

 

Watch online

 

 

Server 1

 

 

 

 

Watch WWE 205

 

 

 

 

Server 2

 

 

 

watch now

 

 

 

Server-3

 

 

 

Watch WWE 205

 

1080p WWE 205 Live 31 07 2020

 

Uploaded By Site DX-TV.com

 

 

 

Download with premium account Links 

 

 

Keep2Share

 

 

nitroflare.com

 

 

rapidgator.net

 

 

uploadgig.com

 

 

 

dx-tv.com

 

urlfree.net

 47 total views,  7 views today

Leave a Reply

Your email address will not be published. Required fields are marked *

This site uses Akismet to reduce spam. Learn how your comment data is processed.

%d bloggers like this: