Warrior Wrestling Stadium Series 2021 720p Free Replay

Warrior Wrestling Stadium Series 2021 480p/ 720p Online Free Replay DX-TV

Contents show

Stadium Series 2021

 Warrior Wrestling Stadium Series 2021

 

 

 

Download Links with premium High Speed
 


Dopapk

 

 

Show Links

 

 

http://shrt10.com/5p9q5
http://shrt10.com/mEqz3EM

 

[collapse]

 

 

 

 

Nitroflare

 

 

Show Links

 

 

http://shrt10.com/wPHsx
http://shrt10.com/jc6YoWOjm

 

 

[collapse]

 

 

Rapidgator

 

 

Show Links

 

 

http://shrt10.com/4ZtUo
http://shrt10.com/OAauSUl

 

 

[collapse]

 

 

 

Uploaded
 

Show Links

 

 

http://shrt10.com/HAf9Xz
http://shrt10.com/2Yn9a

 

 

[collapse]

 

 

 

 

 

Watch online

 

Server 1

 

 

 

 

Stadium Series 2021

 

 

 

 

Server-2

 

 

 

 

watch now

 

 

 

|Server-3

 

 

 

 

watch now

 

 

Uploaded By Site DX-TV.com

 

 

Show Info This Show

Stadium Series 2021

 

Complete name : Warrior Wrestling Stadium Series 2021 480p WEB By DX-TV.com.mp4
Format : MPEG-4
Format profile : Base Media
Codec ID : isom
File size : 2.20 GiB
Duration : 4 h 2 min
Overall bit rate : 1 299 kb/s

Video
ID : 1
Format : AVC
Format/Info : Advanced Video
Duration : 4 h 2 min
Bit rate : 1 160 kb/s
Width : 852 pixels
Height : 480 pixels
Display aspect ratio : 16:9
Frame rate mode : Variable
Frame rate : 29.970 (29970/1000) FPS
Color space : YUV
Chroma subsampling : 4:2:0
Bit depth : 8 bits
Scan type : Progressive
Bits/(Pixel*Frame) : 0.095
Stream size : 1.97 GiB (89%)
Codec configuration box : avc

Stadium Series 2021

Audio
ID : 2
Format : AAC LC
Format/Info : Advanced Audio
Codec ID : mp4a-40-2
Duration : 4 h 2 min
Bit rate mode : Constant
Bit rate : 132 kb/s
Channel(s) : 2 channels
Channel layout : L R
Sampling rate : 44.1 kHz
Frame rate : 43.066 FPS
Compression mode : Lossy
Stream size : 227 MiB (10%)
Default : Yes
Alternate group : 1

General
Complete name : Warrior Wrestling Stadium Series 2021 720p WEB By DX-TV.com.mp4
Format : MPEG-4
Format profile : Base Media
Codec ID : isom
File size : 3.90 GiB
Duration : 4 h 2 min
Overall bit rate : 2 299 kb/s

Stadium Series 2021

Video
ID : 1
Format : AVC
Format/Info : Advanced Video
Format profile : [email protected]
Duration : 4 h 2 min
Bit rate : 2 081 kb/s
Width : 1 280 pixels
Height : 720 pixels
Display aspect ratio : 16:9
Frame rate mode : Variable
Frame rate : 29.970 (29970/1000) FPS
Color space : YUV
Chroma subsampling : 4:2:0
Bit depth : 8 bits
Scan type : Progressive
Bits/(Pixel*Frame) : 0.075
Stream size : 3.53 GiB (91%)
Codec configuration box : avc

Stadium Series 2021

Audio
ID : 2
Format : AAC LC
Format/Info : Advanced Audio
Codec ID : mp4a-40-2
Duration : 4 h 2 min
Bit rate mode : Constant
Bit rate : 210 kb/s
Channel(s) : 2 channels
Channel layout : L R
Sampling rate : 44.1 kHz
Frame rate : 43.066 FPS (1024 SPF)
Compression mode : Lossy
Stream size : 364 MiB (9%)
Default : Yes
Alternate group : 1

Stadium Series 2021

Complete name : Warrior Wrestling Stadium Series 2021 480p WEB By DX-TV.com.mp4
Format : MPEG-4
Format profile : Base Media
Codec ID : isom
File size : 2.20 GiB
Duration : 4 h 2 min
Overall bit rate : 1 299 kb/s

Video
ID : 1
Format : AVC
Format/Info : Advanced Video
Duration : 4 h 2 min
Bit rate : 1 160 kb/s
Width : 852 pixels
Height : 480 pixels
Display aspect ratio : 16:9
Frame rate mode : Variable
Frame rate : 29.970 (29970/1000) FPS
Color space : YUV
Chroma subsampling : 4:2:0
Bit depth : 8 bits
Scan type : Progressive
Bits/(Pixel*Frame) : 0.095
Stream size : 1.97 GiB (89%)
Codec configuration box : avc

Stadium Series 2021

Audio
ID : 2
Format : AAC LC
Format/Info : Advanced Audio
Codec ID : mp4a-40-2
Duration : 4 h 2 min
Bit rate mode : Constant
Bit rate : 132 kb/s
Channel(s) : 2 channels
Channel layout : L R
Sampling rate : 44.1 kHz
Frame rate : 43.066 FPS
Compression mode : Lossy
Stream size : 227 MiB (10%)
Default : Yes
Alternate group : 1

General
Complete name : Warrior Wrestling Stadium Series 2021 720p WEB By DX-TV.com.mp4
Format : MPEG-4
Format profile : Base Media
Codec ID : isom
File size : 3.90 GiB
Duration : 4 h 2 min
Overall bit rate : 2 299 kb/s

Stadium Series 2021

Video
ID : 1
Format : AVC
Format/Info : Advanced Video
Format profile : [email protected]
Duration : 4 h 2 min
Bit rate : 2 081 kb/s
Width : 1 280 pixels
Height : 720 pixels
Display aspect ratio : 16:9
Frame rate mode : Variable
Frame rate : 29.970 (29970/1000) FPS
Color space : YUV
Chroma subsampling : 4:2:0
Bit depth : 8 bits
Scan type : Progressive
Bits/(Pixel*Frame) : 0.075
Stream size : 3.53 GiB (91%)
Codec configuration box : avc

Stadium Series 2021

Audio
ID : 2
Format : AAC LC
Format/Info : Advanced Audio
Codec ID : mp4a-40-2
Duration : 4 h 2 min
Bit rate mode : Constant
Bit rate : 210 kb/s
Channel(s) : 2 channels
Channel layout : L R
Sampling rate : 44.1 kHz
Frame rate : 43.066 FPS (1024 SPF)
Compression mode : Lossy
Stream size : 364 MiB (9%)
Default : Yes
Alternate group : 1

Stadium Series 2021

Complete name : Warrior Wrestling Stadium Series 2021 480p WEB By DX-TV.com.mp4
Format : MPEG-4
Format profile : Base Media
Codec ID : isom
File size : 2.20 GiB
Duration : 4 h 2 min
Overall bit rate : 1 299 kb/s

Video
ID : 1
Format : AVC
Format/Info : Advanced Video
Duration : 4 h 2 min
Bit rate : 1 160 kb/s
Width : 852 pixels
Height : 480 pixels
Display aspect ratio : 16:9
Frame rate mode : Variable
Frame rate : 29.970 (29970/1000) FPS
Color space : YUV
Chroma subsampling : 4:2:0
Bit depth : 8 bits
Scan type : Progressive
Bits/(Pixel*Frame) : 0.095
Stream size : 1.97 GiB (89%)
Codec configuration box : avc

Stadium Series 2021

Audio
ID : 2
Format : AAC LC
Format/Info : Advanced Audio
Codec ID : mp4a-40-2
Duration : 4 h 2 min
Bit rate mode : Constant
Bit rate : 132 kb/s
Channel(s) : 2 channels
Channel layout : L R
Sampling rate : 44.1 kHz
Frame rate : 43.066 FPS
Compression mode : Lossy
Stream size : 227 MiB (10%)
Default : Yes
Alternate group : 1

General
Complete name : Warrior Wrestling Stadium Series 2021 720p WEB By DX-TV.com.mp4
Format : MPEG-4
Format profile : Base Media
Codec ID : isom
File size : 3.90 GiB
Duration : 4 h 2 min
Overall bit rate : 2 299 kb/s

Stadium Series 2021

Video
ID : 1
Format : AVC
Format/Info : Advanced Video
Format profile : [email protected]
Duration : 4 h 2 min
Bit rate : 2 081 kb/s
Width : 1 280 pixels
Height : 720 pixels
Display aspect ratio : 16:9
Frame rate mode : Variable
Frame rate : 29.970 (29970/1000) FPS
Color space : YUV
Chroma subsampling : 4:2:0
Bit depth : 8 bits
Scan type : Progressive
Bits/(Pixel*Frame) : 0.075
Stream size : 3.53 GiB (91%)
Codec configuration box : avc

Stadium Series 2021

Audio
ID : 2
Format : AAC LC
Format/Info : Advanced Audio
Codec ID : mp4a-40-2
Duration : 4 h 2 min
Bit rate mode : Constant
Bit rate : 210 kb/s
Channel(s) : 2 channels
Channel layout : L R
Sampling rate : 44.1 kHz
Frame rate : 43.066 FPS (1024 SPF)
Compression mode : Lossy
Stream size : 364 MiB (9%)
Default : Yes
Alternate group : 1

Stadium Series 2021

Complete name : Warrior Wrestling Stadium Series 2021 480p WEB By DX-TV.com.mp4
Format : MPEG-4
Format profile : Base Media
Codec ID : isom
File size : 2.20 GiB
Duration : 4 h 2 min
Overall bit rate : 1 299 kb/s

Video
ID : 1
Format : AVC
Format/Info : Advanced Video
Duration : 4 h 2 min
Bit rate : 1 160 kb/s
Width : 852 pixels
Height : 480 pixels
Display aspect ratio : 16:9
Frame rate mode : Variable
Frame rate : 29.970 (29970/1000) FPS
Color space : YUV
Chroma subsampling : 4:2:0
Bit depth : 8 bits
Scan type : Progressive
Bits/(Pixel*Frame) : 0.095
Stream size : 1.97 GiB (89%)
Codec configuration box : avc

Stadium Series 2021

Audio
ID : 2
Format : AAC LC
Format/Info : Advanced Audio
Codec ID : mp4a-40-2
Duration : 4 h 2 min
Bit rate mode : Constant
Bit rate : 132 kb/s
Channel(s) : 2 channels
Channel layout : L R
Sampling rate : 44.1 kHz
Frame rate : 43.066 FPS
Compression mode : Lossy
Stream size : 227 MiB (10%)
Default : Yes
Alternate group : 1

General
Complete name : Warrior Wrestling Stadium Series 2021 720p WEB By DX-TV.com.mp4
Format : MPEG-4
Format profile : Base Media
Codec ID : isom
File size : 3.90 GiB
Duration : 4 h 2 min
Overall bit rate : 2 299 kb/s

Stadium Series 2021

Video
ID : 1
Format : AVC
Format/Info : Advanced Video
Format profile : [email protected]
Duration : 4 h 2 min
Bit rate : 2 081 kb/s
Width : 1 280 pixels
Height : 720 pixels
Display aspect ratio : 16:9
Frame rate mode : Variable
Frame rate : 29.970 (29970/1000) FPS
Color space : YUV
Chroma subsampling : 4:2:0
Bit depth : 8 bits
Scan type : Progressive
Bits/(Pixel*Frame) : 0.075
Stream size : 3.53 GiB (91%)
Codec configuration box : avc

Stadium Series 2021

Audio
ID : 2
Format : AAC LC
Format/Info : Advanced Audio
Codec ID : mp4a-40-2
Duration : 4 h 2 min
Bit rate mode : Constant
Bit rate : 210 kb/s
Channel(s) : 2 channels
Channel layout : L R
Sampling rate : 44.1 kHz
Frame rate : 43.066 FPS (1024 SPF)
Compression mode : Lossy
Stream size : 364 MiB (9%)
Default : Yes
Alternate group : 1

Stadium Series 2021

Complete name : Warrior Wrestling Stadium Series 2021 480p WEB By DX-TV.com.mp4
Format : MPEG-4
Format profile : Base Media
Codec ID : isom
File size : 2.20 GiB
Duration : 4 h 2 min
Overall bit rate : 1 299 kb/s

Video
ID : 1
Format : AVC
Format/Info : Advanced Video
Duration : 4 h 2 min
Bit rate : 1 160 kb/s
Width : 852 pixels
Height : 480 pixels
Display aspect ratio : 16:9
Frame rate mode : Variable
Frame rate : 29.970 (29970/1000) FPS
Color space : YUV
Chroma subsampling : 4:2:0
Bit depth : 8 bits
Scan type : Progressive
Bits/(Pixel*Frame) : 0.095
Stream size : 1.97 GiB (89%)
Codec configuration box : avc

Stadium Series 2021

Audio
ID : 2
Format : AAC LC
Format/Info : Advanced Audio
Codec ID : mp4a-40-2
Duration : 4 h 2 min
Bit rate mode : Constant
Bit rate : 132 kb/s
Channel(s) : 2 channels
Channel layout : L R
Sampling rate : 44.1 kHz
Frame rate : 43.066 FPS
Compression mode : Lossy
Stream size : 227 MiB (10%)
Default : Yes
Alternate group : 1

General
Complete name : Warrior Wrestling Stadium Series 2021 720p WEB By DX-TV.com.mp4
Format : MPEG-4
Format profile : Base Media
Codec ID : isom
File size : 3.90 GiB
Duration : 4 h 2 min
Overall bit rate : 2 299 kb/s

Stadium Series 2021

Video
ID : 1
Format : AVC
Format/Info : Advanced Video
Format profile : [email protected]
Duration : 4 h 2 min
Bit rate : 2 081 kb/s
Width : 1 280 pixels
Height : 720 pixels
Display aspect ratio : 16:9
Frame rate mode : Variable
Frame rate : 29.970 (29970/1000) FPS
Color space : YUV
Chroma subsampling : 4:2:0
Bit depth : 8 bits
Scan type : Progressive
Bits/(Pixel*Frame) : 0.075
Stream size : 3.53 GiB (91%)
Codec configuration box : avc

Stadium Series 2021

Audio
ID : 2
Format : AAC LC
Format/Info : Advanced Audio
Codec ID : mp4a-40-2
Duration : 4 h 2 min
Bit rate mode : Constant
Bit rate : 210 kb/s
Channel(s) : 2 channels
Channel layout : L R
Sampling rate : 44.1 kHz
Frame rate : 43.066 FPS (1024 SPF)
Compression mode : Lossy
Stream size : 364 MiB (9%)
Default : Yes
Alternate group : 1

Stadium Series 2021

Complete name : Warrior Wrestling Stadium Series 2021 480p WEB By DX-TV.com.mp4
Format : MPEG-4
Format profile : Base Media
Codec ID : isom
File size : 2.20 GiB
Duration : 4 h 2 min
Overall bit rate : 1 299 kb/s

Video
ID : 1
Format : AVC
Format/Info : Advanced Video
Duration : 4 h 2 min
Bit rate : 1 160 kb/s
Width : 852 pixels
Height : 480 pixels
Display aspect ratio : 16:9
Frame rate mode : Variable
Frame rate : 29.970 (29970/1000) FPS
Color space : YUV
Chroma subsampling : 4:2:0
Bit depth : 8 bits
Scan type : Progressive
Bits/(Pixel*Frame) : 0.095
Stream size : 1.97 GiB (89%)
Codec configuration box : avc

Stadium Series 2021

Audio
ID : 2
Format : AAC LC
Format/Info : Advanced Audio
Codec ID : mp4a-40-2
Duration : 4 h 2 min
Bit rate mode : Constant
Bit rate : 132 kb/s
Channel(s) : 2 channels
Channel layout : L R
Sampling rate : 44.1 kHz
Frame rate : 43.066 FPS
Compression mode : Lossy
Stream size : 227 MiB (10%)
Default : Yes
Alternate group : 1

General
Complete name : Warrior Wrestling Stadium Series 2021 720p WEB By DX-TV.com.mp4
Format : MPEG-4
Format profile : Base Media
Codec ID : isom
File size : 3.90 GiB
Duration : 4 h 2 min
Overall bit rate : 2 299 kb/s

Stadium Series 2021

Video
ID : 1
Format : AVC
Format/Info : Advanced Video
Format profile : [email protected]
Duration : 4 h 2 min
Bit rate : 2 081 kb/s
Width : 1 280 pixels
Height : 720 pixels
Display aspect ratio : 16:9
Frame rate mode : Variable
Frame rate : 29.970 (29970/1000) FPS
Color space : YUV
Chroma subsampling : 4:2:0
Bit depth : 8 bits
Scan type : Progressive
Bits/(Pixel*Frame) : 0.075
Stream size : 3.53 GiB (91%)
Codec configuration box : avc

Stadium Series 2021

Audio
ID : 2
Format : AAC LC
Format/Info : Advanced Audio
Codec ID : mp4a-40-2
Duration : 4 h 2 min
Bit rate mode : Constant
Bit rate : 210 kb/s
Channel(s) : 2 channels
Channel layout : L R
Sampling rate : 44.1 kHz
Frame rate : 43.066 FPS (1024 SPF)
Compression mode : Lossy
Stream size : 364 MiB (9%)
Default : Yes
Alternate group : 1

Stadium Series 2021

Complete name : Warrior Wrestling Stadium Series 2021 480p WEB By DX-TV.com.mp4
Format : MPEG-4
Format profile : Base Media
Codec ID : isom
File size : 2.20 GiB
Duration : 4 h 2 min
Overall bit rate : 1 299 kb/s

Video
ID : 1
Format : AVC
Format/Info : Advanced Video
Duration : 4 h 2 min
Bit rate : 1 160 kb/s
Width : 852 pixels
Height : 480 pixels
Display aspect ratio : 16:9
Frame rate mode : Variable
Frame rate : 29.970 (29970/1000) FPS
Color space : YUV
Chroma subsampling : 4:2:0
Bit depth : 8 bits
Scan type : Progressive
Bits/(Pixel*Frame) : 0.095
Stream size : 1.97 GiB (89%)
Codec configuration box : avc

Stadium Series 2021

Audio
ID : 2
Format : AAC LC
Format/Info : Advanced Audio
Codec ID : mp4a-40-2
Duration : 4 h 2 min
Bit rate mode : Constant
Bit rate : 132 kb/s
Channel(s) : 2 channels
Channel layout : L R
Sampling rate : 44.1 kHz
Frame rate : 43.066 FPS
Compression mode : Lossy
Stream size : 227 MiB (10%)
Default : Yes
Alternate group : 1

General
Complete name : Warrior Wrestling Stadium Series 2021 720p WEB By DX-TV.com.mp4
Format : MPEG-4
Format profile : Base Media
Codec ID : isom
File size : 3.90 GiB
Duration : 4 h 2 min
Overall bit rate : 2 299 kb/s

Stadium Series 2021

Video
ID : 1
Format : AVC
Format/Info : Advanced Video
Format profile : [email protected]
Duration : 4 h 2 min
Bit rate : 2 081 kb/s
Width : 1 280 pixels
Height : 720 pixels
Display aspect ratio : 16:9
Frame rate mode : Variable
Frame rate : 29.970 (29970/1000) FPS
Color space : YUV
Chroma subsampling : 4:2:0
Bit depth : 8 bits
Scan type : Progressive
Bits/(Pixel*Frame) : 0.075
Stream size : 3.53 GiB (91%)
Codec configuration box : avc

Stadium Series 2021

Audio
ID : 2
Format : AAC LC
Format/Info : Advanced Audio
Codec ID : mp4a-40-2
Duration : 4 h 2 min
Bit rate mode : Constant
Bit rate : 210 kb/s
Channel(s) : 2 channels
Channel layout : L R
Sampling rate : 44.1 kHz
Frame rate : 43.066 FPS (1024 SPF)
Compression mode : Lossy
Stream size : 364 MiB (9%)
Default : Yes
Alternate group : 1

Stadium Series 2021

Complete name : Warrior Wrestling Stadium Series 2021 480p WEB By DX-TV.com.mp4
Format : MPEG-4
Format profile : Base Media
Codec ID : isom
File size : 2.20 GiB
Duration : 4 h 2 min
Overall bit rate : 1 299 kb/s

Video
ID : 1
Format : AVC
Format/Info : Advanced Video
Duration : 4 h 2 min
Bit rate : 1 160 kb/s
Width : 852 pixels
Height : 480 pixels
Display aspect ratio : 16:9
Frame rate mode : Variable
Frame rate : 29.970 (29970/1000) FPS
Color space : YUV
Chroma subsampling : 4:2:0
Bit depth : 8 bits
Scan type : Progressive
Bits/(Pixel*Frame) : 0.095
Stream size : 1.97 GiB (89%)
Codec configuration box : avc

Stadium Series 2021

Audio
ID : 2
Format : AAC LC
Format/Info : Advanced Audio
Codec ID : mp4a-40-2
Duration : 4 h 2 min
Bit rate mode : Constant
Bit rate : 132 kb/s
Channel(s) : 2 channels
Channel layout : L R
Sampling rate : 44.1 kHz
Frame rate : 43.066 FPS
Compression mode : Lossy
Stream size : 227 MiB (10%)
Default : Yes
Alternate group : 1

General
Complete name : Warrior Wrestling Stadium Series 2021 720p WEB By DX-TV.com.mp4
Format : MPEG-4
Format profile : Base Media
Codec ID : isom
File size : 3.90 GiB
Duration : 4 h 2 min
Overall bit rate : 2 299 kb/s

Stadium Series 2021

Video
ID : 1
Format : AVC
Format/Info : Advanced Video
Format profile : [email protected]
Duration : 4 h 2 min
Bit rate : 2 081 kb/s
Width : 1 280 pixels
Height : 720 pixels
Display aspect ratio : 16:9
Frame rate mode : Variable
Frame rate : 29.970 (29970/1000) FPS
Color space : YUV
Chroma subsampling : 4:2:0
Bit depth : 8 bits
Scan type : Progressive
Bits/(Pixel*Frame) : 0.075
Stream size : 3.53 GiB (91%)
Codec configuration box : avc

Stadium Series 2021

Audio
ID : 2
Format : AAC LC
Format/Info : Advanced Audio
Codec ID : mp4a-40-2
Duration : 4 h 2 min
Bit rate mode : Constant
Bit rate : 210 kb/s
Channel(s) : 2 channels
Channel layout : L R
Sampling rate : 44.1 kHz
Frame rate : 43.066 FPS (1024 SPF)
Compression mode : Lossy
Stream size : 364 MiB (9%)
Default : Yes
Alternate group : 1

Stadium Series 2021

Complete name : Warrior Wrestling Stadium Series 2021 480p WEB By DX-TV.com.mp4
Format : MPEG-4
Format profile : Base Media
Codec ID : isom
File size : 2.20 GiB
Duration : 4 h 2 min
Overall bit rate : 1 299 kb/s

Video
ID : 1
Format : AVC
Format/Info : Advanced Video
Duration : 4 h 2 min
Bit rate : 1 160 kb/s
Width : 852 pixels
Height : 480 pixels
Display aspect ratio : 16:9
Frame rate mode : Variable
Frame rate : 29.970 (29970/1000) FPS
Color space : YUV
Chroma subsampling : 4:2:0
Bit depth : 8 bits
Scan type : Progressive
Bits/(Pixel*Frame) : 0.095
Stream size : 1.97 GiB (89%)
Codec configuration box : avc

Stadium Series 2021

Audio
ID : 2
Format : AAC LC
Format/Info : Advanced Audio
Codec ID : mp4a-40-2
Duration : 4 h 2 min
Bit rate mode : Constant
Bit rate : 132 kb/s
Channel(s) : 2 channels
Channel layout : L R
Sampling rate : 44.1 kHz
Frame rate : 43.066 FPS
Compression mode : Lossy
Stream size : 227 MiB (10%)
Default : Yes
Alternate group : 1

General
Complete name : Warrior Wrestling Stadium Series 2021 720p WEB By DX-TV.com.mp4
Format : MPEG-4
Format profile : Base Media
Codec ID : isom
File size : 3.90 GiB
Duration : 4 h 2 min
Overall bit rate : 2 299 kb/s

Stadium Series 2021

Video
ID : 1
Format : AVC
Format/Info : Advanced Video
Format profile : [email protected]
Duration : 4 h 2 min
Bit rate : 2 081 kb/s
Width : 1 280 pixels
Height : 720 pixels
Display aspect ratio : 16:9
Frame rate mode : Variable
Frame rate : 29.970 (29970/1000) FPS
Color space : YUV
Chroma subsampling : 4:2:0
Bit depth : 8 bits
Scan type : Progressive
Bits/(Pixel*Frame) : 0.075
Stream size : 3.53 GiB (91%)
Codec configuration box : avc

Stadium Series 2021

Audio
ID : 2
Format : AAC LC
Format/Info : Advanced Audio
Codec ID : mp4a-40-2
Duration : 4 h 2 min
Bit rate mode : Constant
Bit rate : 210 kb/s
Channel(s) : 2 channels
Channel layout : L R
Sampling rate : 44.1 kHz
Frame rate : 43.066 FPS (1024 SPF)
Compression mode : Lossy
Stream size : 364 MiB (9%)
Default : Yes
Alternate group : 1

Stadium Series 2021

Complete name : Warrior Wrestling Stadium Series 2021 480p WEB By DX-TV.com.mp4
Format : MPEG-4
Format profile : Base Media
Codec ID : isom
File size : 2.20 GiB
Duration : 4 h 2 min
Overall bit rate : 1 299 kb/s

Video
ID : 1
Format : AVC
Format/Info : Advanced Video
Duration : 4 h 2 min
Bit rate : 1 160 kb/s
Width : 852 pixels
Height : 480 pixels
Display aspect ratio : 16:9
Frame rate mode : Variable
Frame rate : 29.970 (29970/1000) FPS
Color space : YUV
Chroma subsampling : 4:2:0
Bit depth : 8 bits
Scan type : Progressive
Bits/(Pixel*Frame) : 0.095
Stream size : 1.97 GiB (89%)
Codec configuration box : avc

Stadium Series 2021

Audio
ID : 2
Format : AAC LC
Format/Info : Advanced Audio
Codec ID : mp4a-40-2
Duration : 4 h 2 min
Bit rate mode : Constant
Bit rate : 132 kb/s
Channel(s) : 2 channels
Channel layout : L R
Sampling rate : 44.1 kHz
Frame rate : 43.066 FPS
Compression mode : Lossy
Stream size : 227 MiB (10%)
Default : Yes
Alternate group : 1

General
Complete name : Warrior Wrestling Stadium Series 2021 720p WEB By DX-TV.com.mp4
Format : MPEG-4
Format profile : Base Media
Codec ID : isom
File size : 3.90 GiB
Duration : 4 h 2 min
Overall bit rate : 2 299 kb/s

Stadium Series 2021

Video
ID : 1
Format : AVC
Format/Info : Advanced Video
Format profile : [email protected]
Duration : 4 h 2 min
Bit rate : 2 081 kb/s
Width : 1 280 pixels
Height : 720 pixels
Display aspect ratio : 16:9
Frame rate mode : Variable
Frame rate : 29.970 (29970/1000) FPS
Color space : YUV
Chroma subsampling : 4:2:0
Bit depth : 8 bits
Scan type : Progressive
Bits/(Pixel*Frame) : 0.075
Stream size : 3.53 GiB (91%)
Codec configuration box : avc

Stadium Series 2021

Audio
ID : 2
Format : AAC LC
Format/Info : Advanced Audio
Codec ID : mp4a-40-2
Duration : 4 h 2 min
Bit rate mode : Constant
Bit rate : 210 kb/s
Channel(s) : 2 channels
Channel layout : L R
Sampling rate : 44.1 kHz
Frame rate : 43.066 FPS (1024 SPF)
Compression mode : Lossy
Stream size : 364 MiB (9%)
Default : Yes
Alternate group : 1

Stadium Series 2021

Complete name : Warrior Wrestling Stadium Series 2021 480p WEB By DX-TV.com.mp4
Format : MPEG-4
Format profile : Base Media
Codec ID : isom
File size : 2.20 GiB
Duration : 4 h 2 min
Overall bit rate : 1 299 kb/s

Video
ID : 1
Format : AVC
Format/Info : Advanced Video
Duration : 4 h 2 min
Bit rate : 1 160 kb/s
Width : 852 pixels
Height : 480 pixels
Display aspect ratio : 16:9
Frame rate mode : Variable
Frame rate : 29.970 (29970/1000) FPS
Color space : YUV
Chroma subsampling : 4:2:0
Bit depth : 8 bits
Scan type : Progressive
Bits/(Pixel*Frame) : 0.095
Stream size : 1.97 GiB (89%)
Codec configuration box : avc

Stadium Series 2021

Audio
ID : 2
Format : AAC LC
Format/Info : Advanced Audio
Codec ID : mp4a-40-2
Duration : 4 h 2 min
Bit rate mode : Constant
Bit rate : 132 kb/s
Channel(s) : 2 channels
Channel layout : L R
Sampling rate : 44.1 kHz
Frame rate : 43.066 FPS
Compression mode : Lossy
Stream size : 227 MiB (10%)
Default : Yes
Alternate group : 1

General
Complete name : Warrior Wrestling Stadium Series 2021 720p WEB By DX-TV.com.mp4
Format : MPEG-4
Format profile : Base Media
Codec ID : isom
File size : 3.90 GiB
Duration : 4 h 2 min
Overall bit rate : 2 299 kb/s

Stadium Series 2021

Video
ID : 1
Format : AVC
Format/Info : Advanced Video
Format profile : [email protected]
Duration : 4 h 2 min
Bit rate : 2 081 kb/s
Width : 1 280 pixels
Height : 720 pixels
Display aspect ratio : 16:9
Frame rate mode : Variable
Frame rate : 29.970 (29970/1000) FPS
Color space : YUV
Chroma subsampling : 4:2:0
Bit depth : 8 bits
Scan type : Progressive
Bits/(Pixel*Frame) : 0.075
Stream size : 3.53 GiB (91%)
Codec configuration box : avc

Stadium Series 2021

Audio
ID : 2
Format : AAC LC
Format/Info : Advanced Audio
Codec ID : mp4a-40-2
Duration : 4 h 2 min
Bit rate mode : Constant
Bit rate : 210 kb/s
Channel(s) : 2 channels
Channel layout : L R
Sampling rate : 44.1 kHz
Frame rate : 43.066 FPS (1024 SPF)
Compression mode : Lossy
Stream size : 364 MiB (9%)
Default : Yes
Alternate group : 1

Stadium Series 2021

Complete name : Warrior Wrestling Stadium Series 2021 480p WEB By DX-TV.com.mp4
Format : MPEG-4
Format profile : Base Media
Codec ID : isom
File size : 2.20 GiB
Duration : 4 h 2 min
Overall bit rate : 1 299 kb/s

Video
ID : 1
Format : AVC
Format/Info : Advanced Video
Duration : 4 h 2 min
Bit rate : 1 160 kb/s
Width : 852 pixels
Height : 480 pixels
Display aspect ratio : 16:9
Frame rate mode : Variable
Frame rate : 29.970 (29970/1000) FPS
Color space : YUV
Chroma subsampling : 4:2:0
Bit depth : 8 bits
Scan type : Progressive
Bits/(Pixel*Frame) : 0.095
Stream size : 1.97 GiB (89%)
Codec configuration box : avc

Stadium Series 2021

Audio
ID : 2
Format : AAC LC
Format/Info : Advanced Audio
Codec ID : mp4a-40-2
Duration : 4 h 2 min
Bit rate mode : Constant
Bit rate : 132 kb/s
Channel(s) : 2 channels
Channel layout : L R
Sampling rate : 44.1 kHz
Frame rate : 43.066 FPS
Compression mode : Lossy
Stream size : 227 MiB (10%)
Default : Yes
Alternate group : 1

General
Complete name : Warrior Wrestling Stadium Series 2021 720p WEB By DX-TV.com.mp4
Format : MPEG-4
Format profile : Base Media
Codec ID : isom
File size : 3.90 GiB
Duration : 4 h 2 min
Overall bit rate : 2 299 kb/s

Stadium Series 2021

Video
ID : 1
Format : AVC
Format/Info : Advanced Video
Format profile : [email protected]
Duration : 4 h 2 min
Bit rate : 2 081 kb/s
Width : 1 280 pixels
Height : 720 pixels
Display aspect ratio : 16:9
Frame rate mode : Variable
Frame rate : 29.970 (29970/1000) FPS
Color space : YUV
Chroma subsampling : 4:2:0
Bit depth : 8 bits
Scan type : Progressive
Bits/(Pixel*Frame) : 0.075
Stream size : 3.53 GiB (91%)
Codec configuration box : avc

Stadium Series 2021

Audio
ID : 2
Format : AAC LC
Format/Info : Advanced Audio
Codec ID : mp4a-40-2
Duration : 4 h 2 min
Bit rate mode : Constant
Bit rate : 210 kb/s
Channel(s) : 2 channels
Channel layout : L R
Sampling rate : 44.1 kHz
Frame rate : 43.066 FPS (1024 SPF)
Compression mode : Lossy
Stream size : 364 MiB (9%)
Default : Yes
Alternate group : 1

Stadium Series 2021

Complete name : Warrior Wrestling Stadium Series 2021 480p WEB By DX-TV.com.mp4
Format : MPEG-4
Format profile : Base Media
Codec ID : isom
File size : 2.20 GiB
Duration : 4 h 2 min
Overall bit rate : 1 299 kb/s

Video
ID : 1
Format : AVC
Format/Info : Advanced Video
Duration : 4 h 2 min
Bit rate : 1 160 kb/s
Width : 852 pixels
Height : 480 pixels
Display aspect ratio : 16:9
Frame rate mode : Variable
Frame rate : 29.970 (29970/1000) FPS
Color space : YUV
Chroma subsampling : 4:2:0
Bit depth : 8 bits
Scan type : Progressive
Bits/(Pixel*Frame) : 0.095
Stream size : 1.97 GiB (89%)
Codec configuration box : avc

Stadium Series 2021

Audio
ID : 2
Format : AAC LC
Format/Info : Advanced Audio
Codec ID : mp4a-40-2
Duration : 4 h 2 min
Bit rate mode : Constant
Bit rate : 132 kb/s
Channel(s) : 2 channels
Channel layout : L R
Sampling rate : 44.1 kHz
Frame rate : 43.066 FPS
Compression mode : Lossy
Stream size : 227 MiB (10%)
Default : Yes
Alternate group : 1

General
Complete name : Warrior Wrestling Stadium Series 2021 720p WEB By DX-TV.com.mp4
Format : MPEG-4
Format profile : Base Media
Codec ID : isom
File size : 3.90 GiB
Duration : 4 h 2 min
Overall bit rate : 2 299 kb/s

Stadium Series 2021

Video
ID : 1
Format : AVC
Format/Info : Advanced Video
Format profile : [email protected]
Duration : 4 h 2 min
Bit rate : 2 081 kb/s
Width : 1 280 pixels
Height : 720 pixels
Display aspect ratio : 16:9
Frame rate mode : Variable
Frame rate : 29.970 (29970/1000) FPS
Color space : YUV
Chroma subsampling : 4:2:0
Bit depth : 8 bits
Scan type : Progressive
Bits/(Pixel*Frame) : 0.075
Stream size : 3.53 GiB (91%)
Codec configuration box : avc

Stadium Series 2021

Audio
ID : 2
Format : AAC LC
Format/Info : Advanced Audio
Codec ID : mp4a-40-2
Duration : 4 h 2 min
Bit rate mode : Constant
Bit rate : 210 kb/s
Channel(s) : 2 channels
Channel layout : L R
Sampling rate : 44.1 kHz
Frame rate : 43.066 FPS (1024 SPF)
Compression mode : Lossy
Stream size : 364 MiB (9%)
Default : Yes
Alternate group : 1

Stadium Series 2021

 

 

[collapse]

 

 

https://dx-tv.com/

Leave a Reply

Your email address will not be published. Required fields are marked *

This site uses Akismet to reduce spam. Learn how your comment data is processed.