VxS Party All The Time 2021 PPV Online Free Replay

VxS Party All The Time 2021 PPV 07 Aug 2021 Online Free Replay DX-TV

Contents show

VxS Party All The Time 2021

 VxS Party All The Time 2021

 

 

 

Download Links with premium High Speed


 

Dopapk

 

 

Show Links

 

http://shrt10.com/TyYT55jl

 

[collapse]

 

 

Nitroflare

 

 

Show Links

 

http://shrt10.com/1RXr1ij

 

[collapse]

 

 

Rapidgator

 

 

Show Links

 

http://shrt10.com/nGEDlUK

 

[collapse]

 

 

Uploaded

 

 

Show Links

 

http://shrt10.com/JSYSNMP

 

[collapse]

 

 

Watch online

 

Server 1

 

 

 

 

VxS Party All The Time 2021

 

 

 

 

Server-2

 

 

 

 

VxS Party All The Time 2021

 

 

 

|Server-3

 

 

 

 

watch now

 

 

Uploaded By Site DX-TV.com

 

 

Show Info This Show

VxS Party All The Time 2021

 

Complete name : VxS Party All The Time PPV 07 Aug 2021 720p WEB By DX-TV.com.mp4
Format : MPEG-4
Format profile : Base Media
Codec ID : isom
File size : 3.22 GiB
Duration : 3 h 9 min
Overall bit rate mode : Variable
Overall bit rate : 2 435 kb/s

VxS Party All The Time 2021

Video
ID : 1
Format : AVC
Format/Info : Advanced Video
Duration : 3 h 9 min
Bit rate mode : Variable
Bit rate : 2 217 kb/s
Maximum bit rate : 6 648 kb/s
Width : 1 280 pixels
Height : 720 pixels
Display aspect ratio : 16:9
Frame rate mode : Variable
Frame rate : 29.970 (29970/1000) FPS
Minimum frame rate : 7.953 FPS
Maximum frame rate : 30.010 FPS
Original frame rate : 30.000 FPS
Color space : YUV
Chroma subsampling : 4:2:0
Bit depth : 8 bits
Scan type : Progressive
Bits/(Pixel*Frame) : 0.080
Stream size : 2.93 GiB (91%)
Codec configuration box : avc

VxS Party All The Time 2021

Audio
ID : 2
Format : AAC LC
Format/Info : Advanced Audio
Codec ID : mp4a-40-2
Duration : 3 h 9 min
Bit rate mode : Variable
Bit rate : 210 kb/s
Maximum bit rate : 252 kb/s
Channel(s) : 2 channels
Channel layout : L R
Sampling rate : 44.1 kHz
Frame rate : 43.066 FPS
Compression mode : Lossy
Stream size : 284 MiB (9%)
Default : Yes
Alternate group : 1

VxS Party All The Time 2021

Name of the event: VxS Party All The Time
Date: 07.08.2021
Promotion: Violence X Suffering
Type: Pay Per View
Location: Westville, New Jersey, USA
Arena: Da Bando
Broadcast type: Live
Broadcast date: 07.08.2021
TV station/network: FITE TV

VxS Party All The Time 2021

Commentary by: Emil Jay & Larry Legend
Pre-Show Match
BLK Jeez vs. Chris Barton
Pre-Show Three Way Match
TJ Crawford vs. Dom DeNaro vs. Tristen Thai
Singles Match
Lucky 13 vs. Big Vin
No Rules Match
Gabriel Skye vs. Dr. Cube
Triple Threat Match
Matt Cross vs. Dyln McKay vs. Marcus Mathers
Singles Match
Homicide vs. Kevin Blackwood
Singles Match
Brian Cage vs. Rich Swann
Singles Match
Anthony Greene vs. Masha Slamovich
Singles Match
2 Cold Scorpio vs. Willie Mack

VxS Party All The Time 2021

Complete name : VxS Party All The Time PPV 07 Aug 2021 720p WEB By DX-TV.com.mp4
Format : MPEG-4
Format profile : Base Media
Codec ID : isom
File size : 3.22 GiB
Duration : 3 h 9 min
Overall bit rate mode : Variable
Overall bit rate : 2 435 kb/s

VxS Party All The Time 2021

Video
ID : 1
Format : AVC
Format/Info : Advanced Video
Duration : 3 h 9 min
Bit rate mode : Variable
Bit rate : 2 217 kb/s
Maximum bit rate : 6 648 kb/s
Width : 1 280 pixels
Height : 720 pixels
Display aspect ratio : 16:9
Frame rate mode : Variable
Frame rate : 29.970 (29970/1000) FPS
Minimum frame rate : 7.953 FPS
Maximum frame rate : 30.010 FPS
Original frame rate : 30.000 FPS
Color space : YUV
Chroma subsampling : 4:2:0
Bit depth : 8 bits
Scan type : Progressive
Bits/(Pixel*Frame) : 0.080
Stream size : 2.93 GiB (91%)
Codec configuration box : avc

VxS Party All The Time 2021

Audio
ID : 2
Format : AAC LC
Format/Info : Advanced Audio
Codec ID : mp4a-40-2
Duration : 3 h 9 min
Bit rate mode : Variable
Bit rate : 210 kb/s
Maximum bit rate : 252 kb/s
Channel(s) : 2 channels
Channel layout : L R
Sampling rate : 44.1 kHz
Frame rate : 43.066 FPS
Compression mode : Lossy
Stream size : 284 MiB (9%)
Default : Yes
Alternate group : 1

VxS Party All The Time 2021

Name of the event: VxS Party All The Time
Date: 07.08.2021
Promotion: Violence X Suffering
Type: Pay Per View
Location: Westville, New Jersey, USA
Arena: Da Bando
Broadcast type: Live
Broadcast date: 07.08.2021
TV station/network: FITE TV

VxS Party All The Time 2021

Commentary by: Emil Jay & Larry Legend
Pre-Show Match
BLK Jeez vs. Chris Barton
Pre-Show Three Way Match
TJ Crawford vs. Dom DeNaro vs. Tristen Thai
Singles Match
Lucky 13 vs. Big Vin
No Rules Match
Gabriel Skye vs. Dr. Cube
Triple Threat Match
Matt Cross vs. Dyln McKay vs. Marcus Mathers
Singles Match
Homicide vs. Kevin Blackwood
Singles Match
Brian Cage vs. Rich Swann
Singles Match
Anthony Greene vs. Masha Slamovich
Singles Match
2 Cold Scorpio vs. Willie Mack

VxS Party All The Time 2021

Complete name : VxS Party All The Time PPV 07 Aug 2021 720p WEB By DX-TV.com.mp4
Format : MPEG-4
Format profile : Base Media
Codec ID : isom
File size : 3.22 GiB
Duration : 3 h 9 min
Overall bit rate mode : Variable
Overall bit rate : 2 435 kb/s

VxS Party All The Time 2021

Video
ID : 1
Format : AVC
Format/Info : Advanced Video
Duration : 3 h 9 min
Bit rate mode : Variable
Bit rate : 2 217 kb/s
Maximum bit rate : 6 648 kb/s
Width : 1 280 pixels
Height : 720 pixels
Display aspect ratio : 16:9
Frame rate mode : Variable
Frame rate : 29.970 (29970/1000) FPS
Minimum frame rate : 7.953 FPS
Maximum frame rate : 30.010 FPS
Original frame rate : 30.000 FPS
Color space : YUV
Chroma subsampling : 4:2:0
Bit depth : 8 bits
Scan type : Progressive
Bits/(Pixel*Frame) : 0.080
Stream size : 2.93 GiB (91%)
Codec configuration box : avc

VxS Party All The Time 2021

Audio
ID : 2
Format : AAC LC
Format/Info : Advanced Audio
Codec ID : mp4a-40-2
Duration : 3 h 9 min
Bit rate mode : Variable
Bit rate : 210 kb/s
Maximum bit rate : 252 kb/s
Channel(s) : 2 channels
Channel layout : L R
Sampling rate : 44.1 kHz
Frame rate : 43.066 FPS
Compression mode : Lossy
Stream size : 284 MiB (9%)
Default : Yes
Alternate group : 1

VxS Party All The Time 2021

Name of the event: VxS Party All The Time
Date: 07.08.2021
Promotion: Violence X Suffering
Type: Pay Per View
Location: Westville, New Jersey, USA
Arena: Da Bando
Broadcast type: Live
Broadcast date: 07.08.2021
TV station/network: FITE TV

VxS Party All The Time 2021

Commentary by: Emil Jay & Larry Legend
Pre-Show Match
BLK Jeez vs. Chris Barton
Pre-Show Three Way Match
TJ Crawford vs. Dom DeNaro vs. Tristen Thai
Singles Match
Lucky 13 vs. Big Vin
No Rules Match
Gabriel Skye vs. Dr. Cube
Triple Threat Match
Matt Cross vs. Dyln McKay vs. Marcus Mathers
Singles Match
Homicide vs. Kevin Blackwood
Singles Match
Brian Cage vs. Rich Swann
Singles Match
Anthony Greene vs. Masha Slamovich
Singles Match
2 Cold Scorpio vs. Willie Mack

VxS Party All The Time 2021

Complete name : VxS Party All The Time PPV 07 Aug 2021 720p WEB By DX-TV.com.mp4
Format : MPEG-4
Format profile : Base Media
Codec ID : isom
File size : 3.22 GiB
Duration : 3 h 9 min
Overall bit rate mode : Variable
Overall bit rate : 2 435 kb/s

VxS Party All The Time 2021

Video
ID : 1
Format : AVC
Format/Info : Advanced Video
Duration : 3 h 9 min
Bit rate mode : Variable
Bit rate : 2 217 kb/s
Maximum bit rate : 6 648 kb/s
Width : 1 280 pixels
Height : 720 pixels
Display aspect ratio : 16:9
Frame rate mode : Variable
Frame rate : 29.970 (29970/1000) FPS
Minimum frame rate : 7.953 FPS
Maximum frame rate : 30.010 FPS
Original frame rate : 30.000 FPS
Color space : YUV
Chroma subsampling : 4:2:0
Bit depth : 8 bits
Scan type : Progressive
Bits/(Pixel*Frame) : 0.080
Stream size : 2.93 GiB (91%)
Codec configuration box : avc

VxS Party All The Time 2021

Audio
ID : 2
Format : AAC LC
Format/Info : Advanced Audio
Codec ID : mp4a-40-2
Duration : 3 h 9 min
Bit rate mode : Variable
Bit rate : 210 kb/s
Maximum bit rate : 252 kb/s
Channel(s) : 2 channels
Channel layout : L R
Sampling rate : 44.1 kHz
Frame rate : 43.066 FPS
Compression mode : Lossy
Stream size : 284 MiB (9%)
Default : Yes
Alternate group : 1

VxS Party All The Time 2021

Name of the event: VxS Party All The Time
Date: 07.08.2021
Promotion: Violence X Suffering
Type: Pay Per View
Location: Westville, New Jersey, USA
Arena: Da Bando
Broadcast type: Live
Broadcast date: 07.08.2021
TV station/network: FITE TV

VxS Party All The Time 2021

Commentary by: Emil Jay & Larry Legend
Pre-Show Match
BLK Jeez vs. Chris Barton
Pre-Show Three Way Match
TJ Crawford vs. Dom DeNaro vs. Tristen Thai
Singles Match
Lucky 13 vs. Big Vin
No Rules Match
Gabriel Skye vs. Dr. Cube
Triple Threat Match
Matt Cross vs. Dyln McKay vs. Marcus Mathers
Singles Match
Homicide vs. Kevin Blackwood
Singles Match
Brian Cage vs. Rich Swann
Singles Match
Anthony Greene vs. Masha Slamovich
Singles Match
2 Cold Scorpio vs. Willie Mack

VxS Party All The Time 2021

Complete name : VxS Party All The Time PPV 07 Aug 2021 720p WEB By DX-TV.com.mp4
Format : MPEG-4
Format profile : Base Media
Codec ID : isom
File size : 3.22 GiB
Duration : 3 h 9 min
Overall bit rate mode : Variable
Overall bit rate : 2 435 kb/s

VxS Party All The Time 2021

Video
ID : 1
Format : AVC
Format/Info : Advanced Video
Duration : 3 h 9 min
Bit rate mode : Variable
Bit rate : 2 217 kb/s
Maximum bit rate : 6 648 kb/s
Width : 1 280 pixels
Height : 720 pixels
Display aspect ratio : 16:9
Frame rate mode : Variable
Frame rate : 29.970 (29970/1000) FPS
Minimum frame rate : 7.953 FPS
Maximum frame rate : 30.010 FPS
Original frame rate : 30.000 FPS
Color space : YUV
Chroma subsampling : 4:2:0
Bit depth : 8 bits
Scan type : Progressive
Bits/(Pixel*Frame) : 0.080
Stream size : 2.93 GiB (91%)
Codec configuration box : avc

VxS Party All The Time 2021

Audio
ID : 2
Format : AAC LC
Format/Info : Advanced Audio
Codec ID : mp4a-40-2
Duration : 3 h 9 min
Bit rate mode : Variable
Bit rate : 210 kb/s
Maximum bit rate : 252 kb/s
Channel(s) : 2 channels
Channel layout : L R
Sampling rate : 44.1 kHz
Frame rate : 43.066 FPS
Compression mode : Lossy
Stream size : 284 MiB (9%)
Default : Yes
Alternate group : 1

VxS Party All The Time 2021

Name of the event: VxS Party All The Time
Date: 07.08.2021
Promotion: Violence X Suffering
Type: Pay Per View
Location: Westville, New Jersey, USA
Arena: Da Bando
Broadcast type: Live
Broadcast date: 07.08.2021
TV station/network: FITE TV

VxS Party All The Time 2021

Commentary by: Emil Jay & Larry Legend
Pre-Show Match
BLK Jeez vs. Chris Barton
Pre-Show Three Way Match
TJ Crawford vs. Dom DeNaro vs. Tristen Thai
Singles Match
Lucky 13 vs. Big Vin
No Rules Match
Gabriel Skye vs. Dr. Cube
Triple Threat Match
Matt Cross vs. Dyln McKay vs. Marcus Mathers
Singles Match
Homicide vs. Kevin Blackwood
Singles Match
Brian Cage vs. Rich Swann
Singles Match
Anthony Greene vs. Masha Slamovich
Singles Match
2 Cold Scorpio vs. Willie Mack

VxS Party All The Time 2021

Complete name : VxS Party All The Time PPV 07 Aug 2021 720p WEB By DX-TV.com.mp4
Format : MPEG-4
Format profile : Base Media
Codec ID : isom
File size : 3.22 GiB
Duration : 3 h 9 min
Overall bit rate mode : Variable
Overall bit rate : 2 435 kb/s

VxS Party All The Time 2021

Video
ID : 1
Format : AVC
Format/Info : Advanced Video
Duration : 3 h 9 min
Bit rate mode : Variable
Bit rate : 2 217 kb/s
Maximum bit rate : 6 648 kb/s
Width : 1 280 pixels
Height : 720 pixels
Display aspect ratio : 16:9
Frame rate mode : Variable
Frame rate : 29.970 (29970/1000) FPS
Minimum frame rate : 7.953 FPS
Maximum frame rate : 30.010 FPS
Original frame rate : 30.000 FPS
Color space : YUV
Chroma subsampling : 4:2:0
Bit depth : 8 bits
Scan type : Progressive
Bits/(Pixel*Frame) : 0.080
Stream size : 2.93 GiB (91%)
Codec configuration box : avc

VxS Party All The Time 2021

Audio
ID : 2
Format : AAC LC
Format/Info : Advanced Audio
Codec ID : mp4a-40-2
Duration : 3 h 9 min
Bit rate mode : Variable
Bit rate : 210 kb/s
Maximum bit rate : 252 kb/s
Channel(s) : 2 channels
Channel layout : L R
Sampling rate : 44.1 kHz
Frame rate : 43.066 FPS
Compression mode : Lossy
Stream size : 284 MiB (9%)
Default : Yes
Alternate group : 1

VxS Party All The Time 2021

Name of the event: VxS Party All The Time
Date: 07.08.2021
Promotion: Violence X Suffering
Type: Pay Per View
Location: Westville, New Jersey, USA
Arena: Da Bando
Broadcast type: Live
Broadcast date: 07.08.2021
TV station/network: FITE TV

VxS Party All The Time 2021

Commentary by: Emil Jay & Larry Legend
Pre-Show Match
BLK Jeez vs. Chris Barton
Pre-Show Three Way Match
TJ Crawford vs. Dom DeNaro vs. Tristen Thai
Singles Match
Lucky 13 vs. Big Vin
No Rules Match
Gabriel Skye vs. Dr. Cube
Triple Threat Match
Matt Cross vs. Dyln McKay vs. Marcus Mathers
Singles Match
Homicide vs. Kevin Blackwood
Singles Match
Brian Cage vs. Rich Swann
Singles Match
Anthony Greene vs. Masha Slamovich
Singles Match
2 Cold Scorpio vs. Willie Mack

VxS Party All The Time 2021

Complete name : VxS Party All The Time PPV 07 Aug 2021 720p WEB By DX-TV.com.mp4
Format : MPEG-4
Format profile : Base Media
Codec ID : isom
File size : 3.22 GiB
Duration : 3 h 9 min
Overall bit rate mode : Variable
Overall bit rate : 2 435 kb/s

VxS Party All The Time 2021

Video
ID : 1
Format : AVC
Format/Info : Advanced Video
Duration : 3 h 9 min
Bit rate mode : Variable
Bit rate : 2 217 kb/s
Maximum bit rate : 6 648 kb/s
Width : 1 280 pixels
Height : 720 pixels
Display aspect ratio : 16:9
Frame rate mode : Variable
Frame rate : 29.970 (29970/1000) FPS
Minimum frame rate : 7.953 FPS
Maximum frame rate : 30.010 FPS
Original frame rate : 30.000 FPS
Color space : YUV
Chroma subsampling : 4:2:0
Bit depth : 8 bits
Scan type : Progressive
Bits/(Pixel*Frame) : 0.080
Stream size : 2.93 GiB (91%)
Codec configuration box : avc

VxS Party All The Time 2021

Audio
ID : 2
Format : AAC LC
Format/Info : Advanced Audio
Codec ID : mp4a-40-2
Duration : 3 h 9 min
Bit rate mode : Variable
Bit rate : 210 kb/s
Maximum bit rate : 252 kb/s
Channel(s) : 2 channels
Channel layout : L R
Sampling rate : 44.1 kHz
Frame rate : 43.066 FPS
Compression mode : Lossy
Stream size : 284 MiB (9%)
Default : Yes
Alternate group : 1

VxS Party All The Time 2021

Name of the event: VxS Party All The Time
Date: 07.08.2021
Promotion: Violence X Suffering
Type: Pay Per View
Location: Westville, New Jersey, USA
Arena: Da Bando
Broadcast type: Live
Broadcast date: 07.08.2021
TV station/network: FITE TV

VxS Party All The Time 2021

Commentary by: Emil Jay & Larry Legend
Pre-Show Match
BLK Jeez vs. Chris Barton
Pre-Show Three Way Match
TJ Crawford vs. Dom DeNaro vs. Tristen Thai
Singles Match
Lucky 13 vs. Big Vin
No Rules Match
Gabriel Skye vs. Dr. Cube
Triple Threat Match
Matt Cross vs. Dyln McKay vs. Marcus Mathers
Singles Match
Homicide vs. Kevin Blackwood
Singles Match
Brian Cage vs. Rich Swann
Singles Match
Anthony Greene vs. Masha Slamovich
Singles Match
2 Cold Scorpio vs. Willie Mack

VxS Party All The Time 2021

Complete name : VxS Party All The Time PPV 07 Aug 2021 720p WEB By DX-TV.com.mp4
Format : MPEG-4
Format profile : Base Media
Codec ID : isom
File size : 3.22 GiB
Duration : 3 h 9 min
Overall bit rate mode : Variable
Overall bit rate : 2 435 kb/s

VxS Party All The Time 2021

Video
ID : 1
Format : AVC
Format/Info : Advanced Video
Duration : 3 h 9 min
Bit rate mode : Variable
Bit rate : 2 217 kb/s
Maximum bit rate : 6 648 kb/s
Width : 1 280 pixels
Height : 720 pixels
Display aspect ratio : 16:9
Frame rate mode : Variable
Frame rate : 29.970 (29970/1000) FPS
Minimum frame rate : 7.953 FPS
Maximum frame rate : 30.010 FPS
Original frame rate : 30.000 FPS
Color space : YUV
Chroma subsampling : 4:2:0
Bit depth : 8 bits
Scan type : Progressive
Bits/(Pixel*Frame) : 0.080
Stream size : 2.93 GiB (91%)
Codec configuration box : avc

VxS Party All The Time 2021

Audio
ID : 2
Format : AAC LC
Format/Info : Advanced Audio
Codec ID : mp4a-40-2
Duration : 3 h 9 min
Bit rate mode : Variable
Bit rate : 210 kb/s
Maximum bit rate : 252 kb/s
Channel(s) : 2 channels
Channel layout : L R
Sampling rate : 44.1 kHz
Frame rate : 43.066 FPS
Compression mode : Lossy
Stream size : 284 MiB (9%)
Default : Yes
Alternate group : 1

VxS Party All The Time 2021

Name of the event: VxS Party All The Time
Date: 07.08.2021
Promotion: Violence X Suffering
Type: Pay Per View
Location: Westville, New Jersey, USA
Arena: Da Bando
Broadcast type: Live
Broadcast date: 07.08.2021
TV station/network: FITE TV

VxS Party All The Time 2021

Commentary by: Emil Jay & Larry Legend
Pre-Show Match
BLK Jeez vs. Chris Barton
Pre-Show Three Way Match
TJ Crawford vs. Dom DeNaro vs. Tristen Thai
Singles Match
Lucky 13 vs. Big Vin
No Rules Match
Gabriel Skye vs. Dr. Cube
Triple Threat Match
Matt Cross vs. Dyln McKay vs. Marcus Mathers
Singles Match
Homicide vs. Kevin Blackwood
Singles Match
Brian Cage vs. Rich Swann
Singles Match
Anthony Greene vs. Masha Slamovich
Singles Match
2 Cold Scorpio vs. Willie Mack

VxS Party All The Time 2021

Complete name : VxS Party All The Time PPV 07 Aug 2021 720p WEB By DX-TV.com.mp4
Format : MPEG-4
Format profile : Base Media
Codec ID : isom
File size : 3.22 GiB
Duration : 3 h 9 min
Overall bit rate mode : Variable
Overall bit rate : 2 435 kb/s

VxS Party All The Time 2021

Video
ID : 1
Format : AVC
Format/Info : Advanced Video
Duration : 3 h 9 min
Bit rate mode : Variable
Bit rate : 2 217 kb/s
Maximum bit rate : 6 648 kb/s
Width : 1 280 pixels
Height : 720 pixels
Display aspect ratio : 16:9
Frame rate mode : Variable
Frame rate : 29.970 (29970/1000) FPS
Minimum frame rate : 7.953 FPS
Maximum frame rate : 30.010 FPS
Original frame rate : 30.000 FPS
Color space : YUV
Chroma subsampling : 4:2:0
Bit depth : 8 bits
Scan type : Progressive
Bits/(Pixel*Frame) : 0.080
Stream size : 2.93 GiB (91%)
Codec configuration box : avc

VxS Party All The Time 2021

Audio
ID : 2
Format : AAC LC
Format/Info : Advanced Audio
Codec ID : mp4a-40-2
Duration : 3 h 9 min
Bit rate mode : Variable
Bit rate : 210 kb/s
Maximum bit rate : 252 kb/s
Channel(s) : 2 channels
Channel layout : L R
Sampling rate : 44.1 kHz
Frame rate : 43.066 FPS
Compression mode : Lossy
Stream size : 284 MiB (9%)
Default : Yes
Alternate group : 1

VxS Party All The Time 2021

Name of the event: VxS Party All The Time
Date: 07.08.2021
Promotion: Violence X Suffering
Type: Pay Per View
Location: Westville, New Jersey, USA
Arena: Da Bando
Broadcast type: Live
Broadcast date: 07.08.2021
TV station/network: FITE TV

VxS Party All The Time 2021

Commentary by: Emil Jay & Larry Legend
Pre-Show Match
BLK Jeez vs. Chris Barton
Pre-Show Three Way Match
TJ Crawford vs. Dom DeNaro vs. Tristen Thai
Singles Match
Lucky 13 vs. Big Vin
No Rules Match
Gabriel Skye vs. Dr. Cube
Triple Threat Match
Matt Cross vs. Dyln McKay vs. Marcus Mathers
Singles Match
Homicide vs. Kevin Blackwood
Singles Match
Brian Cage vs. Rich Swann
Singles Match
Anthony Greene vs. Masha Slamovich
Singles Match
2 Cold Scorpio vs. Willie Mack

VxS Party All The Time 2021

Complete name : VxS Party All The Time PPV 07 Aug 2021 720p WEB By DX-TV.com.mp4
Format : MPEG-4
Format profile : Base Media
Codec ID : isom
File size : 3.22 GiB
Duration : 3 h 9 min
Overall bit rate mode : Variable
Overall bit rate : 2 435 kb/s

VxS Party All The Time 2021

Video
ID : 1
Format : AVC
Format/Info : Advanced Video
Duration : 3 h 9 min
Bit rate mode : Variable
Bit rate : 2 217 kb/s
Maximum bit rate : 6 648 kb/s
Width : 1 280 pixels
Height : 720 pixels
Display aspect ratio : 16:9
Frame rate mode : Variable
Frame rate : 29.970 (29970/1000) FPS
Minimum frame rate : 7.953 FPS
Maximum frame rate : 30.010 FPS
Original frame rate : 30.000 FPS
Color space : YUV
Chroma subsampling : 4:2:0
Bit depth : 8 bits
Scan type : Progressive
Bits/(Pixel*Frame) : 0.080
Stream size : 2.93 GiB (91%)
Codec configuration box : avc

VxS Party All The Time 2021

Audio
ID : 2
Format : AAC LC
Format/Info : Advanced Audio
Codec ID : mp4a-40-2
Duration : 3 h 9 min
Bit rate mode : Variable
Bit rate : 210 kb/s
Maximum bit rate : 252 kb/s
Channel(s) : 2 channels
Channel layout : L R
Sampling rate : 44.1 kHz
Frame rate : 43.066 FPS
Compression mode : Lossy
Stream size : 284 MiB (9%)
Default : Yes
Alternate group : 1

VxS Party All The Time 2021

Name of the event: VxS Party All The Time
Date: 07.08.2021
Promotion: Violence X Suffering
Type: Pay Per View
Location: Westville, New Jersey, USA
Arena: Da Bando
Broadcast type: Live
Broadcast date: 07.08.2021
TV station/network: FITE TV

VxS Party All The Time 2021

Commentary by: Emil Jay & Larry Legend
Pre-Show Match
BLK Jeez vs. Chris Barton
Pre-Show Three Way Match
TJ Crawford vs. Dom DeNaro vs. Tristen Thai
Singles Match
Lucky 13 vs. Big Vin
No Rules Match
Gabriel Skye vs. Dr. Cube
Triple Threat Match
Matt Cross vs. Dyln McKay vs. Marcus Mathers
Singles Match
Homicide vs. Kevin Blackwood
Singles Match
Brian Cage vs. Rich Swann
Singles Match
Anthony Greene vs. Masha Slamovich
Singles Match
2 Cold Scorpio vs. Willie Mack

VxS Party All The Time 2021

Complete name : VxS Party All The Time PPV 07 Aug 2021 720p WEB By DX-TV.com.mp4
Format : MPEG-4
Format profile : Base Media
Codec ID : isom
File size : 3.22 GiB
Duration : 3 h 9 min
Overall bit rate mode : Variable
Overall bit rate : 2 435 kb/s

VxS Party All The Time 2021

Video
ID : 1
Format : AVC
Format/Info : Advanced Video
Duration : 3 h 9 min
Bit rate mode : Variable
Bit rate : 2 217 kb/s
Maximum bit rate : 6 648 kb/s
Width : 1 280 pixels
Height : 720 pixels
Display aspect ratio : 16:9
Frame rate mode : Variable
Frame rate : 29.970 (29970/1000) FPS
Minimum frame rate : 7.953 FPS
Maximum frame rate : 30.010 FPS
Original frame rate : 30.000 FPS
Color space : YUV
Chroma subsampling : 4:2:0
Bit depth : 8 bits
Scan type : Progressive
Bits/(Pixel*Frame) : 0.080
Stream size : 2.93 GiB (91%)
Codec configuration box : avc

VxS Party All The Time 2021

Audio
ID : 2
Format : AAC LC
Format/Info : Advanced Audio
Codec ID : mp4a-40-2
Duration : 3 h 9 min
Bit rate mode : Variable
Bit rate : 210 kb/s
Maximum bit rate : 252 kb/s
Channel(s) : 2 channels
Channel layout : L R
Sampling rate : 44.1 kHz
Frame rate : 43.066 FPS
Compression mode : Lossy
Stream size : 284 MiB (9%)
Default : Yes
Alternate group : 1

VxS Party All The Time 2021

Name of the event: VxS Party All The Time
Date: 07.08.2021
Promotion: Violence X Suffering
Type: Pay Per View
Location: Westville, New Jersey, USA
Arena: Da Bando
Broadcast type: Live
Broadcast date: 07.08.2021
TV station/network: FITE TV

VxS Party All The Time 2021

Commentary by: Emil Jay & Larry Legend
Pre-Show Match
BLK Jeez vs. Chris Barton
Pre-Show Three Way Match
TJ Crawford vs. Dom DeNaro vs. Tristen Thai
Singles Match
Lucky 13 vs. Big Vin
No Rules Match
Gabriel Skye vs. Dr. Cube
Triple Threat Match
Matt Cross vs. Dyln McKay vs. Marcus Mathers
Singles Match
Homicide vs. Kevin Blackwood
Singles Match
Brian Cage vs. Rich Swann
Singles Match
Anthony Greene vs. Masha Slamovich
Singles Match
2 Cold Scorpio vs. Willie Mack

VxS Party All The Time 2021

 

 

[collapse]

 

 

https://dx-tv.com/

You May Also Like

Leave a Reply

Your email address will not be published. Required fields are marked *

This site uses Akismet to reduce spam. Learn how your comment data is processed.