Watch Glory 50 Super Fight Series WEB DL /720p

Watch Glory 50 Super Fight Series WEB DL /720p

 

 

 

 

 

wwe

 

 

 

 

 

[EVENT]: Glory.50.Super.Fight.Series.WEB-DL.mp4
[SIZE]: 1.32 GB
[SOURCE]: Fight Pass
[CONTAINER]: mp4
[RESOLUTION]: 852 x 480 @ 29.970 FPS
[VIDEO]: H264 @ 1442 Kbps
[AUDIO]: AAC @ 77.6 kbps
[Length]: 02:03:21
[Language]: English
 

 

 

 

 

 

 

 

 
Complete name : Glory.50.Super.Fight.Series.720p.WEB-DL.mp4
Format : MPEG-4
Format profile : Base Media
Codec ID : isom
File size : 3.73 GiB
Duration : 2h 3mn
Overall bit rate : 4 325 Kbps
Writing application : Lavf56.40.101

Video
ID : 1
Format : AVC
Format/Info : Advanced Video Codec
Codec ID : avc1
Codec ID/Info : Advanced Video Coding
Duration : 2h 3mn
Bit rate mode : Variable
Bit rate : 4 193 Kbps
Width : 1 280 pixels
Height : 720 pixels
Display aspect ratio : 16:9
Frame rate mode : Variable
Frame rate : 29.395 fps
Original frame rate : 29.970 fps
Minimum frame rate : 0.033 fps
Maximum frame rate : 29.970 fps
Color space : YUV
Chroma subsampling : 4:2:0
Bit depth : 8 bits
Scan type : Progressive
Bits/(Pixel*Frame) : 0.155
Stream size : 3.61 GiB (97%)

Audio
ID : 2
Format : AAC
Format/Info : Advanced Audio Codec
Format profile : LC
Codec ID : 40
Duration : 2h 3mn
Bit rate mode : Constant
Bit rate : 123 Kbps
Channel(s) : 2 channels
Channel positions : Front: L R
Sampling rate : 44.1 KHz
Compression mode : Lossy
Stream size : 109 MiB (3%)

 

 

 

 

 

 

 

 

 

 

Watch Glory 50 Super Fight Series WEB DL /720p

 

 

 

 

Watch online

 

 

Waiting finish converting video

 

 

Server 1

 

 

 

 

 

 

 

 

 

 

 

 

 

 

Server 2

 

 

 

 

 

 

 


 

 

 

 

 

 

Uploaded By Site DX-TV.com

 

 

 

open rar file to see this password

 

 

 

 

The password is : DX-TV.com

 

 

 

 

400p+720p

 

 

 

 

 

Uploaded.net + rapidgator.net

 

 

 

 

 

 

 

http://shrt10.com/zJNIItk

 

http://shrt10.com/zLX5RC

 

http://shrt10.com/rsy1oktZ

 

http://shrt10.com/ur9CE

 

 

 

 

 

 

 

 

 

Watch Glory 50 Super Fight Series WEB DL /720p

WE need Staff/ Uploader/ Capper best quality For DX-TV
For More INFO Send PM for Admin on Email : sna[email protected]

X