UWN Primetime Live Ep2 Full Show Online

Watch United Wrestling Network Primetime LIVE Episode 2 DX-TV

 

UWN Primetime Live

 

 WWE RAW


 

 

UWN Primetime Live Ep2 Full Show Online

 

 

Serena Deeb is off next Tuesday’s edition of the United Wrestling Network’s Live after coming into contact with someone who later tested positive for COVID-19.

Deeb was scheduled to face Allysin Kay on Primetime Live next Tuesday (September 29). Kay will now face Nicole Savoy on the show.

“Earlier this week, I came into contact with an individual who later tested positive for COVID-19. I am taking extra precaution and will be self quarantining for 10 days,” Deeb said in a statement. “Due to this, I unfortunately have to postpone the match at Primetime Live next week with Allysin Kay. I offer my utmost apologies for this. This is a serious matter, and the health and safety of everyone involved always comes first.”

UWN Primetime Live

The NWA has partnered with UWN for the weekly Live pay-per-view series. The NWA tweeted about Deeb being off next Tuesday’s show: “Allysin Kay is going to have a hell of a battle on her hands with Nicole Savoy at Prime Time Live on 9/29! We wish Serena Deeb all the best & look forward to when we can reschedule.”

Deeb worked as a coach for WWE prior to April’s roster cuts. She made her AEW in-ring debut earlier this month. It was announced this week that she’s signed with AEW.

 

[su_expand more_text=”Show More Info” less_text=”Close all Info” height=”30″ text_color=”#000000″ link_color=”#e25f8b” link_style=”button” more_icon=”icon: arrow-down” less_icon=”icon: arrow-up”]

UWN Primetime Live

Complete name : United Wrestling Network   LIVE Episode 2.mp4
Format : MPEG-4
Format profile : Base Media
Codec ID : isom
File size : 2.47 GiB
Duration : 1 h 34 min
Overall bit rate : 3 736 kb/s
Writing application : Lavf58.51.101

UWN Primetime Live

Video
ID : 1
Format : AVC
Duration : 1 h 34 min
Source duration : 1 h 34 min
Bit rate : 3 681 kb/s
Width : 1 920 pixels
Height : 1 080 pixels
Display aspect ratio : 16:9
Frame rate mode : Variable
Frame rate : 30.000 FPS
Color space : YUV
Chroma sampling : 4:2:0
Bit depth : 8 bits
Scan type : Progressive
Bits/(Pixel*Frame) : 0.059
Stream size : 2.43 GiB (98%)
mdhd_Duration : 5672366
Codec configuration box : avcC

UWN Primetime Live

Audio
ID : 2
Format : AAC LC
Format/Info : Advanced Audio
Codec ID : mp4a-40-2
Duration : 1 h 34 min
Bit rate mode : Constant
Bit rate : 48.0 kb/s
Channel(s) : 2 channels
Channel layout : L R
Sampling rate : 44.1 kHz
Frame rate : 43.066 FPS (1024 SPF)
Compression mode : Lossy
Stream size : 31.8 MiB (1%)
Default : Yes
Alternate group : 1

 

 

 

UWN Primetime Live Ep2 Full Show Online

 

 

[/su_expand]

 

 

 

Watch online

 

 

[su_expand more_text=”Open Videos Online” less_text=”Close Videos” height=”0″ text_color=”#0859fe” link_color=”#a74a69″ link_style=”button” more_icon=”icon: play” less_icon=”icon: stop”]

 

 

Server 1

 

 

 

 

UWN Primetime Live

 

 

 

 

Server-2

 

 

 

UWN Primetime Live

 

 

 

 

Server-3

 

 

 

watch now

 

 

 

[/su_expand]
 

 

 

Uploaded By Site DX-TV.com

 

 

 

 

 

Download Free Links with normal and high Speed [ more 15 hosts ]  

 

[su_expand more_text=”Show Hosts Info” less_text=”Close all Info” height=”30″ text_color=”#000000″ link_color=”#e25f8b” link_style=”button” more_icon=”icon: arrow-down” less_icon=”icon: arrow-up”]

 

UWN Primetime Live

hexupload.net – clicknupload.co – www.multiup.org – uptobox.com – anonfiles.com – userscloud.com –

dropapk.to alfafile.net – ddownload.com – rockfile.co – 1fichier.com – filedown.org – katfile.com – filerio.in

 

 

[/su_expand]

 

 

http://shrt10.com/zfcHNp
http://shrt10.com/VgKBrr
http://shrt10.com/E6bCD4
http://shrt10.com/wpuSU8gOo
http://shrt10.com/44NpUNX
http://shrt10.com/FUfBYz57
http://shrt10.com/LaOUa5q
http://shrt10.com/lMCF1Sh5Q
http://shrt10.com/jUUsTCi
http://shrt10.com/HNAn3zyI

 

 

 

 

Download Links with premium High Speed   

 

 

[su_expand more_text=”Open Download Links” less_text=”Close all Links” height=”0″ text_color=”#4b9a3e” link_color=”#1b3fa8″ link_style=”button” more_icon=”icon: link” less_icon=”icon: unlink”]
 

 

Keep2Share

 

 

 

uploaded.net

 

 

 

nitroflare.com

 

 

 

rapidgator.net

 

 

 

uploadgig.com

 

 

[/su_expand]
 

dx-tv.com

 

urlfree.net

Leave a Reply

Your email address will not be published. Required fields are marked *

This site uses Akismet to reduce spam. Learn how your comment data is processed.