Unsanctioned Pro 9 Indiana Vacation 2020 Full Show

Watch Unsanctioned Pro 9 Indiana Vacation 2020 Full Show DX-TV

 

Unsanctioned Pro 9

 

 

 Unsanctioned Pro 9

Unsanctioned Pro 9 Indiana Vacation 2020 Full Show

 

[su_expand more_text=”Show More Info” less_text=”Close all Info” height=”30″ text_color=”#000000″ link_color=”#e25f8b” link_style=”button” more_icon=”icon: arrow-down” less_icon=”icon: arrow-up”]

 

  1. Cole Radrick def. Gnarls Garvin
  2. Sage Philips def. Adam Slade
  3. PB Smooth def. Bradley Prescott IV
  4. Lexus Montez def. Lee Moriarty
  5. Nolan Edwards def. Logan Stunt
  6. Lord Crewe def. O’Shay Edwards 
  7. Shane Mercer def. Calvin Tankman
  8. Alex Colon def. Devon Moore
  9. 6 Man Tag Team Match For The Unsanctioned Pro Tag Team Championships: 
  10. Tre Lamar and The Rejects (Reed Bentley and John Wayne Murdoch) def. Myron Reed and The Awesome Odyssey
  11. (Chris Copeland and Jack Andrews) (c) to become the new Unsanctioned Pro Tag Team Champions
  12. No Ropes Match For The Unsanctioned Pro Heavyweight Championship: 
  13. Everett Cross (c) defeated Dominic Garrini to retain the Unsanctioned Pro Heavyweight

Unsanctioned Pro 9

Complete name : Unsanctioned Pro 9 Indiana Vacation.mp4
Format : MPEG-4
Format profile : Base Media
Codec ID : isom (
File size : 4.91 GiB
Duration : 2 h 47 min
Overall bit rate : 4 194 kb/s
Writing application : Lavf54.63.104

Unsanctioned Pro 9

Video
ID : 1
Format : AVC
Duration : 2 h 47 min
Bit rate : 3 996 kb/s
Width : 1 920 pixels
Height : 1 080 pixels
Display aspect ratio : 16:9
Frame rate mode : Constant
Frame rate : 30.000 FPS
Color space : YUV
Chroma : 4:2:0
Bit depth : 8 bits
Scan type : Progressive
Bits/(Pixel*Frame) : 0.064
Stream size : 4.67 GiB (95%)
Codec configuration box : avcC

Unsanctioned Pro 9

Audio
ID : 2
Format : AAC LC
Format/Info : Advanced Audio
Codec ID : mp4a-40-2
Duration : 2 h 47 min
Duration_LastFrame : -21 ms
Bit rate mode : Constant
Bit rate : 192 kb/s
Channel(s) : 2 channels
Channel layout : L R
Sampling rate : 48.0 kHz
Frame rate : 46.875 FPS (1024 SPF)
Compression mode : Lossy
Stream size : 227 MiB (5%)
Language : English
Default : Yes
Alternate group : 1

 

 

 

Unsanctioned Pro 9 Indiana Vacation 2020 Full Show

 

 

[/su_expand]

 

 

 

Watch online

 

 

[su_expand more_text=”Open Videos Online” less_text=”Close Videos” height=”0″ text_color=”#0859fe” link_color=”#a74a69″ link_style=”button” more_icon=”icon: play” less_icon=”icon: stop”]

 

 

Server 1

 

 

 

 

watch now

 

 

 

Server-2

 

 

 

watch now

 

 

 

 

Server-3

 

 

 

Unsanctioned Pro 9

 

 

 

[/su_expand]

Uploaded By Site DX-TV.com

 

 

 

 

 

Download Free Links with normal and high Speed [ more 14 hosts ]  

 

[su_expand more_text=”Show Hosts Info” less_text=”Close all Info” height=”30″ text_color=”#000000″ link_color=”#e25f8b” link_style=”button” more_icon=”icon: arrow-down” less_icon=”icon: arrow-up”]

 

 

 

 

 

[/su_expand]

 

 

http://shrt10.com/9CRUYSiq
http://shrt10.com/h5O5boyN
http://shrt10.com/OvyBcQ
http://shrt10.com/bcvIUq
http://shrt10.com/QoZbxoT0
http://shrt10.com/LLDyDs9
http://shrt10.com/jZnuTZeev
http://shrt10.com/lmNVzM
http://shrt10.com/LtM0r

 

 

 

Download Links with premium High Speed   

 

 

[su_expand more_text=”Open Download Links” less_text=”Close all Links” height=”0″ text_color=”#4b9a3e” link_color=”#1b3fa8″ link_style=”button” more_icon=”icon: link” less_icon=”icon: unlink”]

nitroflare.com

 

 

 

rapidgator.net

 

 

[/su_expand]
dx-tv.com

 

urlfree.net

Leave a Reply

Your email address will not be published. Required fields are marked *

This site uses Akismet to reduce spam. Learn how your comment data is processed.