United Wrestling Network Primetime Live 2020 11 17 1080p

Watch United Wrestling Network Primetime Live 2020 11 17 1080p HDTV Star DX-TV

United Wrestling Network Primetime Live

 

 United Wrestling Network Primetime Live

 

United Wrestling Network Primetime Live 2020 11 17 1080p

 

 

[su_expand more_text=”Show More Info” less_text=”Close all Info” height=”30″ text_color=”#000000″ link_color=”#e25f8b” link_style=”button” more_icon=”icon: arrow-down” less_icon=”icon: arrow-up”]

 

Complete name : United.Wrestling.Network.Primetime.2020.11.17.1080p.HDTV.x264-Star.mkv
Format : Matroska
Format version : Version 4
File size : 6.29 GiB
Duration : 1 h 28 min
Overall bit rate : 10.2 Mb/s

Wrestling Network Primetime Live

Video
ID : 1
Format : AVC
Duration : 1 h 28 min
Bit rate : 10 000 kb/s
Width : 1 920 pixels
Height : 1 080 pixels
aspect ratio : 16:9
Frame rate mode : Constant
Frame rate : 29.970 FPS
Color space : YUV
Chroma sampling : 4:2:0
Bit depth : 8 bits
Scan type : Progressive
Bits/(Pixel*Frame) : 0.161
Stream size : 6.01 GiB
Forced : No
Color range : Limited
Color primaries : BT.709
Transfer characteristics : BT.709
Matrix coefficients : BT.709

Wrestling Network Primetime Live

Audio
ID : 2
Format : AC-3
Format/Info : Audio
Commercial name : Dolby
Codec ID : A_AC3
Duration : 1 h 28 min
Bit rate mode : Constant
Bit rate : 256 kb/s
Channel(s) : 2 channels
Channel layout : L R
Sampling rate : 48.0 kHz
Frame rate : 31.250 FPS
Compression mode : Lossy
Delay relative to video : -5 ms
Stream size : 162 MiB
Title : Stereo
Service kind : Complete
Default : Yes
Forced : No

 

 

Wrestling Network Primetime Live 2020 11 17 1080p

 

 

[/su_expand]

 

 

Watch online

 

 

Server 1

 

 

 

 

 

 

 

Wrestling Network Primetime Live

Server-2

 

 

 

 

 

 

 

 

Server–3

 

 

 

 

 

 

 

 

Uploaded By Site DX-TV.com

 

Wrestling Network Primetime Live

Download Links with premium High Speed   

 

 

 

 

nitroflare.com

 

 

 

rapidgator.net

 

 

 

uploadgig.com

 

 

 

 

 

dx-tv.com

 

urlfree.net