UFC The Ultimate Fighter 27 Finale Prelims 720p HDTV Ebi Watch / Download

UFC The Ultimate Fighter 27 Finale Prelims 720p HDTV Ebi Watch / Download

 

 

 


 

dx-tv.com

 

 

 

 

 
Complete name : UFC.The.Ultimate.Fighter.27.Finale.Prelims.HDTV.x264-Ebi.mp4
Format : MPEG-4
Format profile : Base Media / Version 2
Codec ID : mp42
File size : 1.09 GiB
Duration : 1h 47mn
Overall bit rate : 1 459 Kbps
Encoded date : UTC 2018-07-07 02:37:45
Tagged date : UTC 2018-07-07 02:37:45

Video
ID : 1
Format : AVC
Format/Info : Advanced Video Codec
Codec ID : avc1
Codec ID/Info : Advanced Video Coding
Duration : 1h 47mn
Bit rate mode : Variable
Bit rate : 1 300 Kbps
Width : 712 pixels
Height : 400 pixels
Display aspect ratio : 16:9
Frame rate mode : Constant
Frame rate : 29.970 fps
Color space : YUV
Chroma subsampling : 4:2:0
Bit depth : 8 bits
Scan type : Progressive
Bits/(Pixel*Frame) : 0.152
Stream size : 994 MiB (89%)

Audio
ID : 2
Format : AAC
Format/Info : Advanced Audio Codec
Format profile : LC
Codec ID : 40
Duration : 1h 47mn
Bit rate mode : Variable
Bit rate : 159 Kbps
Channel(s) : 2 channels
Channel positions : Front: L R
Sampling rate : 48.0 KHz
Compression mode : Lossy
Stream size : 122 MiB (11%)
Title : Stereo
Encoded date : UTC 2018-07-07 02:37:45
Tagged date : UTC 2018-07-07 02:37:45

 

 

 

UFC The Ultimate Fighter 27 Finale Prelims 720p HDTV Ebi Watch / Download

 

 

 

 

Watch online

 

 

Waiting finish converting video

 

 

Server 1

 

 

 

 

 

 

 

 

 

 

 

 

 

 

 

 

 

 

Server 2

 

 

 

 

 

 

 

 


 

 

 

Uploaded By Site DX-TV.com

 

 

 

open rar file to see this password

 

 

 

 

The password : DX-TV.com

 

 

 

 

 

 

Uploaded.net + rapidgator.net

 

 

 

 

 

 

http://shrt10.com/57Hx5e

 
http://shrt10.com/iWTT

 

 

 

 

 

 

 

 

 

UFC The Ultimate Fighter 27 Finale Prelims 720p HDTV Ebi Watch / Download