UFC on ESPN 8 720p Online 16 May 2020

Watch UFC on ESPN 8 720p Free Online Full Show DX-TV

 

UFC on ESPN

 UFC on ESPN 8


 

UFC on ESPN 8 720p Online 16 May 2020

 

 

Complete name : UFC.on.ESPN.8.720p.WEB-DL.By DX-TV.com.mp4
Format : MPEG-4
Format profile : Base Media
Codec ID : isom
File size : 6.53 GiB
Duration : 3 h 24 min
bit rate mode : UFC on ESPN
Overall bit rate : 4 560 kb/s
Writing application : Lavf58.12.100

Video
ID : 2
Format : AVC
Codec ID/Info : UFC on ESPN
Duration : 3 h 24 min
Bit rate mode : Variable
Bit rate : 4 418 kb/s
Maximum bit rate : 4 809 kb/s
Width : 1 280 pixels
Height : 720 pixels
Display aspect ratio : 16:9
Frame rate mode : UFC on ESPN
Frame rate : 30.000 FPS
Standard : NTSC
Color space : YUV
Chroma subsampling : 4:2:0
Bit depth : 8 bits
Scan type : UFC on ESPN
Bits/(Pixel*Frame) : 0.160
Stream size : 6.32 GiB (97%)
Color range : Limited
Color primaries : BT.709
Transfer : BT.709
Matrix : BT.709
Codec box : UFC on ESPN

Audio
ID : 3
Format : AAC LC
Format/Info : UFC on ESPN
Codec ID : mp4a-40-2
Duration : 3 h 24 min
Bit rate mode : Constant
Bit rate : 132 kb/s
Channel(s) : 2 channels
Channel layout : L R
Sampling rate : 48.0 kHz
Frame rate : 46.875 FPS (1024 SPF)
Compression mode : Lossy
Stream size : 193 MiB (3%)
Default : Yes
Alternate group : UFC on ESPN

 

 

 

Watch online

 

 

Server 1

 

 

 

 

watch now

 

 

 

 

Server 2

 

 

 

watch now

 

 

 

UFC on ESPN 8 720p Online 16 May 2020

 

 

Uploaded By Site DX-TV.com

 

 

 

Download with premium account Links 

 

 

Keep2Share

 

 

nitroflare.com

 

 

rapidgator.net

 

 

uploadgig.com

 

 

 

dx-tv.com

 

urlfree.net

Leave a Reply

Your email address will not be published. Required fields are marked *

This site uses Akismet to reduce spam. Learn how your comment data is processed.

%d bloggers like this: