UFC on ESPN 12 Prelims Full Show Online

Watch UFC on ESPN 12 Prelims Full Show Online DX-TV

 

UFC on ESPN 12

 UFC on ESPN 12
 

 

UFC on ESPN 12 Prelims Full Show Online

 

 

 

Complete name : UFC.on.ESPN.12.Prelims.WEB-DL .mp4
Format : MPEG-4
Format profile : Base Media
Codec ID : isom
File size : 1.19 GiB
Duration : 2 h 25 min
UFC on ESPN rate mode : Variable
Overall bit rate : 1 173 kb/s
Writing application : Lavf58.12.100

UFC on ESPN 12 Prelims Full Show Online

Video
ID : 2
Format : AVC
Format/Info : Advanced Video Codec
sprofile : [email protected]
Format settings : CABAC / 4 Ref Frames
settings, CABAC : Yes
UFC on ESPN, : 4 frames
Format settings, GOP : M=1, N=60
Codec ID : avc1
Codec ID/Info : Advanced Video Coding
Duration : 2 h 25 min
Bit rate mode : Variable
Bit rate : 1 033 kb/s
Maximum bit rate : 1 069 kb/s
Width : 896 pixels
Height : 504 pixels
Display aspect ratio : 16:9
Frame rate mode : Variable
Frame rate : 30.000 FPS
Minimum frame rate : 29.412 FPS
Maximum frame rate : 30.303 FPS
Standard : NTSC
Color space : YUV
Chroma UFC on ESPN : 4:2:0
Bit depth : 8 bits
Scan type : Progressive
Bits/(Pixel*Frame) : 0.076
Stream size : 1.05 GiB (88%)
Color range : Limited
Color primaries : BT.709
Transfer characteristics : BT.709
Matrix coefficients : BT.709
Codec configuration box : avcC

on ESPN 12 Prelims Full Show Online

Audio
ID : 3
Format : AAC LC
Format/Info : UFC on ESPN Complexity
Codec ID : mp4a-40-2
Duration : 2 h 25 min
Bit rate mode : Constant
Bit rate : 132 kb/s
Channel(s) : 2 channels
Channel layout : L R
Sampling rate : 48.0 kHz
Frame rate : 46.875 FPS (1024 SPF)
UFC on ESPN mode : Lossy
Stream size : 137 MiB (11%)
Default : Yes
Alternate group : 1

 

 

UFC on ESPN 12 Prelims Full Show Online

 

 

 

Watch online

 

 

Server 1

 

 

 

 

watch now

 

 

 

 

Server 2

 

 

 

watch now

 

 

 

Server-3

 

 

 

UFC on ESPN

 

 

 

Uploaded By Site DX-TV.com

 

 

 

Download with premium account LinksĀ 

 

 

Keep2Share

 

 

nitroflare.com

 

 

rapidgator.net

 

 

uploadgig.com

 

 

 

dx-tv.com

 

urlfree.net

 101 total views,  4 views today

Leave a Reply

Your email address will not be published. Required fields are marked *

This site uses Akismet to reduce spam. Learn how your comment data is processed.

%d bloggers like this:
Optimized with PageSpeed Ninja