UFC on ESPN 12 1080p Prelims Free Download

Watch UFC on ESPN 12 1080p Prelims Full Show Online DX-TV

 

UFC on ESPN 12

 UFC on ESPN 12

UFC on ESPN 12 1080p Prelims Free Download

 

 

Complete name : UFC.on.ESPN.12.Prelims.1080p.WEB-DL -By DX-TV.COM.mp4
Format : MPEG-4
Format profile : Base Media
Codec ID : isom
File size : 5.92 GiB
Duration : 2 h 23 min
UFC on ESPN bit mode : Variable
Overall bit rate : 5 890 kb/s
Writing application : Lavf58.12.100

UFC on ESPN 12 1080p Prelims Free Download

Video
ID : 2
Format : AVC
Format/Info : Advanced Video Codec
aprofile : [email protected]
Format settings : CABAC / 1 Ref Frames
UFC on ESPN CABAC : Yes
Format settings, Reference : 1 frame
Format settings, GOP : M=1, N=60
Codec ID : avc1
Codec ID/Info : UFC on ESPN Coding
Duration : 2 h 23 min
Bit rate mode : Variable
Bit rate : 5 748 kb/s
Maximum bit rate : 5 906 kb/s
Width : 1 920 pixels
Height : 1 080 pixels
Display aspect ratio : 16:9
Frame rate mode : Variable
Frame rate : 30.000 FPS
Minimum frame rate : 29.412 FPS
Maximum frame rate : 30.303 FPS
Color space : YUV
Chroma UFC on ESPN : 4:2:0
Bit depth : 8 bits
Scan type : Progressive
Bits/(Pixel*Frame) : 0.092
Stream size : 5.77 GiB (98%)
Codec configuration box : avcC

  on ESPN 12 1080p Prelims Free Download

Audio
ID : 3
Format : AAC LC
Format/Info : UFC on ESPN Complexity
Codec ID : mp4a-40-2
Duration : 2 h 23 min
Bit rate mode : Variable
Bit rate : 132 kb/s
Maximum bit rate : 140 kb/s
Channel(s) : 2 channels
Channel layout : L R
Sampling rate : 48.0 kHz
Frame rate : 46.875 FPS (1024 SPF)
UFC on ESPN mode : Lossy
Stream size : 136 MiB (2%)
Default : Yes
Alternate group : 1

 

 

UFC on ESPN 12 1080p Prelims Free Download

 

 

 

Watch online

 

 

Server 1

 

 

 

 

watch now

 

 

 

 

Server 2

 

 

 

watch now

 

 

 

Server-3

 

 

 

UFC on ESPN

 

 

 

Uploaded By Site DX-TV.com

 

 

 

Download with premium account Links 

 

 

Keep2Share

 

 

nitroflare.com

 

 

rapidgator.net

 

 

uploadgig.com

 

 

 

dx-tv.com

 

urlfree.net

 111 total views,  2 views today

Leave a Reply

Your email address will not be published. Required fields are marked *

This site uses Akismet to reduce spam. Learn how your comment data is processed.

%d bloggers like this:
Optimized with PageSpeed Ninja