UFC on ESPN 10 1080i Full Event HDTV Free

Watch UFC on ESPN 10 Full Event 1080i HDTV IMPERIVM DX-TV

 

UFC on ESPN

 UFC on ESPN
 

 

UFC on ESPN 10 1080i Full Event HDTV Free

 

 

 

Complete name : UFC.on.ESPN.10.Full.Event.1080i.HDTV-IMPERIVM.mp4
Format : MPEG-4
Format profile : Base Media / Version 2
Codec ID : mp42 (mp42)
File size : 21.2 GiB
Duration : 4 h 58 min
Overall bit rate : 10.2 Mb/s
Codirector : codirector
Production studio : studio
ContentType : Unknown Type
Encoded date : UFC on ESPN
Tagged date : UTC 2020-06-22

Video
ID : 1
Format : AVC
Format/Info : Advanced Video Codec
fprofile : [email protected]
asettings : CABAC / 1 Ref Frames
UFC on ESPN, CABAC : Yes
settings, : 1 frame
Format settings, GOP : M=1, N=30
Muxing mode : Container [email protected]
Codec ID : avc1
Codec ID/Info : Advanced Video Coding
Duration : 4 h 58 min
Source duration : 4 h 58 min
Bit rate : 9 894 kb/s
Width : 1 920 pixels
Height : 1 080 pixels
Display aspect ratio : 16:9
Frame rate mode : Constant
Frame rate : 29.970 (30000/1001) FPS
Color space : YUV
Chroma subsampling : 4:2:0
Bit depth : 8 bits
Scan type : Progressive
Bits/(Pixel*Frame) : 0.159
Stream size : 20.6 GiB (97%)
UFC on ESPN size : 20.6 GiB (97%)
Language : English
Color range : Limited
Color primaries : BT.709
Transfer characteristics : BT.709
Matrix coefficients : BT.709
Codec configuration box : avcC

Audio
ID : 2
Format : AAC LC
Format/Info : UFC on ESPN Complexity
Codec ID : mp4a-40-2
Duration : 4 h 58 min
Bit rate mode : Constant
Bit rate : 258 kb/s
Channel(s) : 2 channels
Channel layout : L R
Sampling rate : 44.1 kHz
Frame rate : 43.066 FPS (1024 SPF)
UFC on ESPN mode : Lossy
Stream size : 550 MiB (3%)
Title : Stereo
Language : English
Default : Yes
Alternate group : 1

 

 

UFC on ESPN 10 1080i Full Event HDTV Free

 

 

 

 

Uploaded By Site DX-TV.com

 

 

 

Download with premium account LinksĀ 

 

 

rapidgator.net

 

 

dx-tv.com

 

urlfree.net

 104 total views,  2 views today

Leave a Reply

Your email address will not be published. Required fields are marked *

This site uses Akismet to reduce spam. Learn how your comment data is processed.

%d bloggers like this:
Optimized with PageSpeed Ninja