UFC Fight Night Thompson vs Neal Full Event 1080i DX-TV

UFC Fight Night Thompson vs Neal Prelims/ Main Event 1080i DX-TV

UFC Fight Night Thompson vs Neal

 UFC Fight Night Thompson vs Neal

 

Download Links with premium High Speed   

 

 

nitroflare.com

http://shrt10.com/JG4L1
http://shrt10.com/6FCQQVjKc

 

 

rapidgator.net

http://shrt10.com/04lv9
http://shrt10.com/RdDlyUBxq

 

 

 

Uploaded By Site DX-TV.com

 

 

 

[su_expand more_text=”Show More Info” less_text=”Close all Info” height=”50″ text_color=”#000000″ link_color=”#e25f8b” link_style=”button” more_icon=”icon: arrow-down” less_icon=”icon: arrow-up”]

Complete name : UFC Fight Night 183 Thompson vs. Neal 1080p DX-TV.com.mkv
Format : Matroska
Format version : Version 4
File size : 10.5 GiB
Duration : 3 h 10 min
Overall bit rate : 7 932 kb/s

Fight Night Thompson vs Neal

Video
ID : 1
Format : AVC
Duration : 3 h 10 min
Bit rate : 7 808 kb/s
Width : 1 920 pixels
Height : 1 080 pixels
Display aspect ratio : 16:9
Frame rate mode : Constant
Frame rate : 30.000 FPS
Color space : YUV
Chroma subsampling : 4:2:0
Bit depth : 8 bits
Scan type : Progressive
Bits/(Pixel*Frame) : 0.126
Stream size : 10.3 GiB
Default : Yes
Forced : No

Audio
ID : 2
Format : AAC LC
Format/Info : Advanced Audio
Codec ID : A_AAC-2
Duration : 3 h 10 min
Bit rate : 192 kb/s
Channel(s) : 2 channels
Channel layout : L R
Sampling rate : 48.0 kHz
Frame rate : 46.875 FPS
Compression mode : Lossy
Stream size : 262 MiB
Default : Yes
Forced : No

xFight Night Thompson vs Neal

Complete name : UFC Fight Night 183 Thompson vs. Neal Prelims 1080p DX-TV.com.mkv
Format : Matroska
Format version : Version 4
File size : 10.9 GiB
Duration : 3 h 16 min
Overall bit rate : 7 947 kb/s

Video
ID : 2
Format : AVC
Duration : 3 h 16 min
Bit rate : 7 808 kb/s
Width : 1 920 pixels
Height : 1 080 pixels
Display aspect ratio : 16:9
Frame rate mode : Constant
Frame rate : 30.000 FPS
Color space : YUV
Chroma subsampling : 4:2:0
Bit depth : 8 bits
Scan type : Progressive
Bits/(Pixel*Frame) : 0.126
Stream size : 10.6 GiB (98%)
Default : Yes
Forced : No

Fight Night  

Audio
ID : 1
Format : AAC LC
Format/Info : Advanced Audio
Codec ID : A_AAC-2
Duration : 3 h 16 min
Bit rate : 192 kb/s
Channel(s) : 2 channels
Channel layout : L R
Sampling rate : 48.0 kHz
Frame rate : 46.875 FPS (1024 SPF)
Compression mode : Lossy
Stream size : 271 MiB (2%)
Default : Yes
Forced : No

 Thompson vs Neal

[/su_expand]

 

https://dx-tv.com/

Leave a Reply

Your email address will not be published. Required fields are marked *

This site uses Akismet to reduce spam. Learn how your comment data is processed.