UFC Fight Night Felder vs Dos Anjos 15 NOV Full Show Online

Watch UFC Fight Night Felder vs Dos Anjos 15 NOV Full Show Online DX-TV

UFC Fight Night Felder vs Dos Anjos

 

 UFC Fight Night Felder vs Dos Anjos

 

UFC Fight Night Felder vs Dos Anjos 15 NOV Full Show Online

 

 

Complete name : UFC.Fight.Night.183.Felder.vs.Dos.Anjos.mp4
Format : MPEG-4
Format profile : Base Media
Codec ID : isom
File size : 1.71 GiB
Duration : 3 h 29 min
Overall bit rate mode : Variable
Overall bit rate : 1 169 kb/s
Writing application : Lavf58.12.100

UFC Fight Night Felder vs Dos Anjos

Video
ID : 2
Format : AVC
Duration : 3 h 29 min
Bit rate mode : Variable
Bit rate : 1 030 kb/s
Maximum bit rate : 1 069 kb/s
Width : 896 pixels
Height : 504 pixels
Display aspect ratio : 16:9
Frame rate mode : Variable
Frame rate : 30.000 FPS
Minimum frame rate : 29.412 FPS
Maximum frame rate : 30.303 FPS
Standard : NTSC
Color space : YUV
Chroma subsampling : 4:2:0
Bit depth : 8 bits
Scan type : Progressive
Bits/(Pixel*Frame) : 0.076
Stream size : 1.50 GiB (88%)
Color range : Limited
Color primaries : BT.709
Transfer characteristics : BT.709
Matrix coefficients : BT.709
Codec configuration box : avc

UFC Fight Night Felder vs Dos Anjos

Audio
ID : 3
Format : AAC LC
Format/Info : Advanced Audio
Codec ID : mp4a-40-2
Duration : 3 h 29 min
Bit rate mode : Constant
Bit rate : 132 kb/s
Channel(s) : 2 channels
Channel layout : L R
Sampling rate : 48.0 kHz
Frame rate : 46.875 FPS
Compression mode : Lossy
Stream size : 197 MiB (11%)
Default : Yes
Alternate group : 1

Fight Night Felder vs Dos Anjos

UFC FIGHT NIGHT: FELDER VS. DOS ANJOS FIGHT CARD

MAIN CARD

  • Paul Felder vs. Rafael dos Anjos; Lightweight 
  • Abdul Razak Alhassan vs. Khaos Williams; Welterweight 
  • Julian Marquez vs. Saparbek Safarov; Middleweight 
  • Eryk Anders vs. Antônio Arroyo; Middleweight 
  • Brendan Allen vs. Sean Strickland; Catchweight (195 lb) 

Fight Night Felder vs Dos Anjos

PRELIMINARY CARD

  • Kay Hansen vs. Cory McKenna; Women’s Strawweight 
  • Ashley Yoder vs. Miranda Granger; Women’s Strawweight 
  • Alex Morono vs. Rhys McKee; Welterweight 
  • José Alberto Quiñónez vs. Louis Smolka; Bantamweight 
  • Randa Markos vs. Kanako Murata; Women’s Strawweight 
  • Geraldo de Freitas vs. Tony Gravely; Bantamweight 
  • Don’Tale Mayes vs. Roque Martinez; Heavyweight 

 

 

Fight Night Felder vs Dos Anjos 15 NOV Full Show Online

 

Watch online

 

 

Server 1

 

 

 

 

 

 

 

 

Server-2

 

 

 

 

 

 

 

Uploaded By Site DX-TV.com

 

 

 

 

Download Free Links with normal and high Speed [ more 14 hosts ]  

 

[su_expand more_text=”Show Hosts Info” less_text=”Close all Info” height=”30″ text_color=”#000000″ link_color=”#e25f8b” link_style=”button” more_icon=”icon: arrow-down” less_icon=”icon: arrow-up”]

 

 Fight Night Felder vs Dos Anjos

hexupload.net – clicknupload.co – www.multiup.org

– uptobox.com – anonfiles.com – userscloud.com –

dropapk.to alfafile.net – ddownload.com – rockfile.co

– 1fichier.com – filedown.org – katfile.com – filerio.in

 

 

[/su_expand]

 

 

http://shrt10.com/xOTqntdbI
http://shrt10.com/7xDz96hci
http://shrt10.com/OIFgE2Nc
http://shrt10.com/0wjm4
http://shrt10.com/H0NkXBOE
http://shrt10.com/QOP44H0
http://shrt10.com/6NQX4c4h
http://shrt10.com/6Lr2z6n

 

 

 

 

Download Links with premium High Speed   

 

 

 

 

dropapk.to

 

 

 

nitroflare.com

 

 

 

rapidgator.net

 

 

 

uploaded.net

 

 

 

uploadgig.com

 

 

 

 

 

dx-tv.com

 

urlfree.net

You May Also Like

Leave a Reply

Your email address will not be published. Required fields are marked *

This site uses Akismet to reduce spam. Learn how your comment data is processed.