UFC Fight Night 182 Free Full Show Online /720p

Watch UFC Fight Night 182 Santos vs Teixeira 720p HDTV Star DX-TV

UFC Fight Night 182 Free

 

 UFC Fight Night 182 Free
 


 

 

UFC Fight Night 182 Free Full Show Online /720p

 

 

 

 

Complete name : UFC.Fight.Night.182.Santos.vs.Teixeira.HDTV.x264-Star.mp4
Format : MPEG-4
Format profile : Base Media
Codec ID : mp42
File size : 1.68 GiB
Duration : 2 h 43 min
Overall bit rate : 1 466 kb/s

UFC Fight Night 182 Free

Video
ID : 1
Format : AVC
Duration : 2 h 43 min
Bit rate : 1 300 kb/s
Width : 720 pixels
Height : 480 pixels
Display aspect ratio : 16:9
aspect rat : 16:9
Frame rate mode : Constant
rate : 29.970 (30000/1001) FPS
Standard : NTSC
Color space : YUV
Chroma subsampling : 4:2:0
Bit depth : 8 bits
Scan type : Progressive
Bits/(Pixel*Frame) : 0.126
Stream size : 1.48 GiB (88%)
Color range : Limited
Color primaries : BT.601 NTSC
Transfer characteristics : BT.709
Matrix coefficients : BT.601
Codec configuration box : avcC

UFC  Night 182 Free

Audio
ID : 2
Format : AAC LC
Format/Info : Advanced
Codec ID : mp4a-40-2
Duration : 2 h 43 min
Bit rate mode : Constant
Bit rate : 160 kb/s
Channel(s) : 2 channels
Channel layout : L R
Sampling rate : 48.0 kHz
Frame rate : 46.875 FPS (1024 SPF)
Compression mode : Lossy
Stream size : 188 MiB (11%)
Title : Stereo
Default : Yes
Alternate group : 1

UFC  Night 182 Free

Complete name : UFC.Fight.Night.182.Santos.vs.Teixeira.720p.HDTV.x264-Star.mkv
Format : Matroska
Format version : Version 4
File size : 5.93 GiB
Duration : 2 h 43 min
Overall bit rate : 5 186 kb/s

 Fight Night 182 Free

Video
ID : 1
Format : AVC
Duration : 2 h 43 min
Bit rate : 5 000 kb/s
Width : 1 280 pixels
Height : 720 pixels
Display aspect ratio : 16:9
Frame rate mode : Constant
Frame rate : 29.970 FPS
Color space : YUV
Chroma subsampling : 4:2:0
Bit depth : 8 bits
Scan type : Progressive
Bits/(Pixel*Frame) : 0.181
Stream size : 5.59 GiB (94%)
Forced : No
Color range : Limited
Color primaries : BT.709
Transfer characteristics : BT.709
Matrix coefficients : BT.709

 Fight Night 182 Free

Audio
ID : 2
Format : AC-3
Format/Info : Audio
Commercial name : Dolby
Codec ID : A_AC3
Duration : 2 h 43 min
Bit rate mode : Constant
Bit rate : 192 kb/s
Channel(s) : 2 channels
Channel layout : L R
Sampling rate : 48.0 kHz
Frame rate : 31.250 FPS
Compression mode : Lossy
Delay relative to video : -5 ms
Stream size : 225 MiB (4%)
Title : Stereo
Service kind : Complete Main
Default : Yes
Forced : No

 

 

 

UFC Fight Night 182 Free Full Show Online /720p

 

Watch online

 

 

Server 1

 

 

 

 

UFC Fight Night 182 Free

 

 

 

 

Server-2

 

 

 

watch now

 

 

 

 

 

 

Uploaded By Site DX-TV.com

 

 

 

 

Download Free Links with normal and high Speed [ more 14 hosts ]  

 

[su_expand more_text=”Show Hosts Info” less_text=”Close all Info” height=”30″ text_color=”#000000″ link_color=”#e25f8b” link_style=”button” more_icon=”icon: arrow-down” less_icon=”icon: arrow-up”]

 

 

hexupload.net – clicknupload.co – www.multiup.org – uptobox.com – anonfiles.com – userscloud.com –

dropapk.to alfafile.net – ddownload.com – rockfile.co – 1fichier.com – filedown.org – katfile.com – filerio.in

 

 

[/su_expand]

 

 

400p

 

http://shrt10.com/palTufM
http://shrt10.com/JnGP4
http://shrt10.com/YD1S94a
http://shrt10.com/9fCxMi9n
http://shrt10.com/QBuusQjql
http://shrt10.com/AEVq7wg
http://shrt10.com/0eSQU
http://shrt10.com/l9A28

 

 

Download Links with premium High Speed   

 

 

 

 

dropapk.to

http://shrt10.com/4uJZTCO
http://shrt10.com/x2pzAuNG

 

 

nitroflare.com

http://shrt10.com/1LSqswW
http://shrt10.com/RTYXC

 

 

rapidgator.net

http://shrt10.com/aXJJRYIYj
http://shrt10.com/3SyUmLg6C

 

 

uploaded.net

 

 

 

uploadgig.com

http://shrt10.com/b2HcWo
http://shrt10.com/zTkZgLK

 

 

 

 

dx-tv.com

 

urlfree.net

Leave a Reply

Your email address will not be published. Required fields are marked *

This site uses Akismet to reduce spam. Learn how your comment data is processed.