UFC Fight Night 180 Prelims 720p Full Show Online

Watch UFC Fight Night 180 Prelims 720p Full Show Online DX-TV

 

UFC Fight Night 180

 

 UFC Fight Night 180

 

UFC Fight Night 180 Prelims 720p Full Show Online

 

 

 

 

Complete name : UFC.Fight.Night.181.Prelims.720p.WEB.mp4
Format : MPEG-4
Format profile : Base Media
Codec ID : isom
File size : 4.55 GiB
Duration : 3 h 30 min
Overall bit rate mode : Variable
Overall bit rate : 3 086 kb/s
Writing application : Lavf58.12.100

 Fight Night 180

Video
ID : 2
Format : AVC
Duration : 3 h 30 min
Bit rate mode : Variable
Bit rate : 2 945 kb/s
Maximum bit rate : 3 159 kb/s
Width : 1 280 pixels
Height : 720 pixels
Display aspect ratio : 16:9
Frame rate mode : Variable
Frame rate : 30.000 FPS
Standard : NTSC
Color space : YUV
Chroma subsampling : 4:2:0
Bit depth : 8 bits
Scan type : Progressive
Bits/(Pixel*Frame) : 0.107
Stream size : 4.34 GiB (95%)
Color range : Limited
Color primaries : BT.709
Transfer characteristics : BT.709
Matrix coefficients : BT.709
Codec configuration box : avcC

UFC Fight Night 180

Audio
ID : 3
Format : AAC LC
Format/Info : Advanced Audio
Codec ID : mp4a-40-2
Duration : 3 h 30 min
Bit rate mode : Variable
Bit rate : 132 kb/s
Maximum bit rate : 140 kb/s
Channel(s) : 2 channels
Channel layout : L R
Sampling rate : 48.0 kHz
Frame rate : 46.875 FPS (1024 SPF)
Compression mode : Lossy
Stream size : 199 MiB (4%)
Default : Yes
Alternate group : 1

 Fight Night 180

Main Card

Brian Ortega vs. Chan Sung Jung
Ciryl Gane vs. Ante Delija 
Jéssica Andrade vs. Katlyn Chookagian
Modestas Bukauskas vs. Jimmy Crute
Thomas Almeida vs. Jonathan Martinez

 Fight Night 180

Prelims

Claudio Silva vs. James Krause
Mateusz Gamrot vs. Guram Kutateladze
Gillian Robertson vs. Poliana Botelho
Jun Yong Park vs. John Phillips
G. Antigulov vs. Maxim Grishin
Said Nurmagomedov vs. Mark Striegl
Fares Ziam vs. Jamie Mullarkey

UFC Fight Night 180 Live Stream

 

 Fight Night 180 Prelims 720p Full Show Online

 

 

 

 

Watch online

 

 

 

 

 

Server 1

 

 

 

 

UFC Fight Night 180

 

 

 

 

Server-2

 

 

 

watch now

 

 

 

 

Server-3

 

 

 

watch now

 

 

 

 

Uploaded By Site DX-TV.com

 

 

Download Links with premium High Speed   

 

 

 

 

dropapk.to

 

 

 

nitroflare.com

 

 

 

rapidgator.net

 

 

 

uploaded.net

 

 

 

uploadgig.com

 

 

 

 

 

dx-tv.com

 

urlfree.net

Leave a Reply

Your email address will not be published. Required fields are marked *

This site uses Akismet to reduce spam. Learn how your comment data is processed.