UFC Fight Night 179 720p Full Show Free Online

Watch UFC Fight Night 179 720p FUll Show Free Online DX-TV

UFC Fight Night 179

 

 UFC Fight Night 179
 


 

 

Fight Night 179 720p Full Show Free Online

 

 

IRENE ALDANA RECORD, BIO

  • Name: Irene Aldana
  • Nationality: Mexican
  • Born: March 26, 1988
  • Height: 5-8
  • Reach: 69 inches
  • Total fights: 17
  • Record: 12-5

UFC Fight Night 179

 FIGHT NIGHT: HOLM VS. ALDANA FIGHT CARD

MAIN CARD

  • Holly Holm vs. Irene Aldana; Women’s Bantamweight 
  • Yorgan de Castro vs. Carlos Felipe; Heavyweight 
  • Germaine de Randamie vs. Julianna Peña; Women’s Bantamweight 
  • Dequan Townsend vs. Duško Todorović; Middleweight 

UFC Fight Night 179

 

Complete name : UFC.Fight.Night.179.720p.WEB-.mp4
Format : MPEG-4
Format profile : Base Media
Codec ID : isom
File size : 4.35 GiB
Duration : 3 h 23 min
Overall bit rate mode : Variable
Overall bit rate : 3 066 kb/s
Writing application : Lavf58.12.100

 Fight Night 179

Video
ID : 2
Format : AVC
Duration : 3 h 23 min
Bit rate mode : Variable
Bit rate : 2 925 kb/s
Maximum bit rate : 3 159 kb/s
Width : 1 280 pixels
Height : 720 pixels
Display aspect ratio : 16:9
Frame rate mode : Variable
Frame rate : 30.000 FPS
Standard : NTSC
Color space : YUV
Chroma subsampling : 4:2:0
Bit depth : 8 bits
Scan type : Progressive
Bits/(Pixel*Frame) : 0.106
Stream size : 4.15 GiB (95%)
Color range : Limited
Color primaries : BT.709
Transfer characteristics : BT.709
Matrix coefficients : BT.709
Codec configuration box : avcC

 Fight Night 179

Audio
ID : 3
Format : AAC LC
Format/Info : Advanced Audio
Codec ID : mp4a-40-2
Duration : 3 h 23 min
Bit rate mode : Constant
Bit rate : 132 kb/s
Channel(s) : 2 channels
Channel layout : L R
Sampling rate : 48.0 kHz
Frame rate : 46.875 FPS (1024 SPF)
Compression mode : Lossy
Stream size : 191 MiB (4%)
Default : Yes
Alternate group : 1

 

Fight Night 179 720p Full Show Free Online

 

 

 

 

Watch online

 

 

 

 

 

Server 1

 

 

 

 

watch now

 

 

 

 

Server-2

 

 

 

watch now

 

 

 

 

Server-3

 

 

 

UFC Fight Night 179

 

 

 

 

Uploaded By Site DX-TV.com

 

 

 

 

Download Free Links with normal and high Speed [ more 14 hosts ]  

 

 

 

 

http://shrt10.com/Shpr34T
http://shrt10.com/15FOMcMCa
http://shrt10.com/aecaaGY
http://shrt10.com/vSNDKa2
http://shrt10.com/y6ECr
http://shrt10.com/1WPxvJoW7

 

 

 

Download Links with premium High Speed   

 

 

 

nitroflare.com

 

 

 

rapidgator.net

 

 

 

uploaded.net

 

 

 

uploadgig.com

 

 

 

 

 

dx-tv.com

 

urlfree.net

Leave a Reply

Your email address will not be published. Required fields are marked *

This site uses Akismet to reduce spam. Learn how your comment data is processed.