UFC Fight Night 179 1080p Prelims FUll Show

Watch UFC Fight Night 179 1080p Prelims FUll Show DX-TV

 

UFC Fight Night 179

 

 UFC Fight Night 179

 

UFC Fight Night 179 1080p Prelims FUll Show

 

 

HOW TO WATCH UFC FIGHT NIGHT: HOLM VS. ALDANA TV, LIVE STREAM INFO

In the United States, the prelims and main card are on ESPN+.

In Canada, the prelims (8:30 p.m. ET) are on TSN5 and the main card is on TSN3 and TSN5.

In the U.K., UFC Fight Night can be seen live BT Sport (prelims at 1:30 a.m. BST and main card at 3:30 a.m.).

In Germany, Austria, Italy and Spain, the UFC Fight Night main card (4:30 a.m. CEST Sunday) 

is available on DAZN, the global sports streaming service.

More details about how to watch in other countries can be found at UFC.com

UFC Fight Night 179

WHERE IS UFC FIGHT NIGHT?

UFC Fight Night: Holm vs. Aldana will take place at “Fight Island” from the Flash Forum in Yes island, Abu Dhabi.

Holm and Aldana will be fighting there for the first time.

 

Complete name : UFC.Fight.Night.179.Prelims.1080p.WEB.mp4
Format : MPEG-4
Format profile : Base Media
Codec ID : isom
File size : 8.81 GiB
Duration : 3 h 33 min
Overall bit rate mode : Variable
Overall bit rate : 5 914 kb/s
Writing application : Lavf58.12.100

UFC Fight Night 179

Video
ID : 2
Format : AVC
Duration : 3 h 33 min
Bit rate mode : Variable
Bit rate : 5 772 kb/s
Maximum bit rate : 8 864 kb/s
Width : 1 920 pixels
Height : 1 080 pixels
Display aspect ratio : 16:9
Frame rate mode : Variable
Frame rate : 30.000 FPS
Minimum frame rate : 29.412 FPS
Maximum frame rate : 30.303 FPS
Color space : YUV
Chroma subsampling : 4:2:0
Bit depth : 8 bits
Scan type : Progressive
Bits/(Pixel*Frame) : 0.093
Stream size : 8.60 GiB (98%)
Codec configuration box : avcC

UFC Fight Night 179

Audio
ID : 3
Format : AAC LC
Format/Info : Advanced Audio
Codec ID : mp4a-40-2
Duration : 3 h 33 min
Bit rate mode : Constant
Bit rate : 132 kb/s
Channel(s) : 2 channels
Channel layout : L R
Sampling rate : 48.0 kHz
Frame rate : 46.875 FPS (1024 SPF)
Compression mode : Lossy
Stream size : 201 MiB (2%)
Default : Yes
Alternate group : 1

 

 

 

UFC Fight Night 179 1080p Prelims FUll Show

 

 

 

 

Watch online

 

 

 

 

 

Server 1

 

 

 

 

watch now

 

 

 

 

Server-2

 

 

 

watch now

 

 

 

 

Server-3

 

 

 

UFC Fight Night 179

 

 

 

 

Uploaded By Site DX-TV.com

 

 

 

Download Links with premium High Speed   

 

 

 

 

nitroflare.com

 

 

 

rapidgator.net

 

 

 

uploadgig.com

 

 

 

 

 

dx-tv.com

 

urlfree.net

Leave a Reply

Your email address will not be published. Required fields are marked *

This site uses Akismet to reduce spam. Learn how your comment data is processed.