UFC Fight Night 175 720p Online Free

Watch UFC Fight Night 175 720p Free Online HDTV Star DX-TV

 

UFC Fight Night 175 720p Free Online

 

 UFC Fight Night 175 720p Free

UFC Fight Night 175 720p Free Online

 

 

 

[su_expand more_text=”Show More Info” less_text=”Close all Info” height=”30″ text_color=”#000000″ link_color=”#e25f8b” link_style=”button” more_icon=”icon: arrow-down” less_icon=”icon: arrow-up”]

 

Complete name : UFC.Fight.Night.175.Smith.vs.Rakic.720p.HDTV.x264-Star.mkv
Format : Matroska
Format version : Version 4
File size : 5.35 GiB
Duration : 2 h 27 min
Overall bit rate : 5 178 kb/s
Writing library : Lavf58.29.100
ErrorDetectionType : Per level 1

Video
ID : 1
Format : AVC
Duration : 2 h 27 min
Bit rate : 5 000 kb/s
Width : 1 280 pixels
Height : 720 pixels
Display aspect ratio : 16:9
Frame rate mode : Constant
Frame rate : 29.970 (30000/1001) FPS
Color space : YUV
Chroma subsampling : 4:2:0
Bit depth : 8 bits
Scan type : Progressive
Bits/(Pixel*Frame) : 0.181
Stream size : 5.04 GiB (94%)
Forced : No
Color range : Limited
Color primaries : BT.709
Transfer characteristics : BT.709
Matrix coefficients : BT.709

UFC Fight Night 175 720p Free Online

Audio
ID : 2
Format : AC-3
Format/Info : Audio Coding 3
Commercial name : Dolby Digital
Codec ID : A_AC3
Duration : 2 h 27 min
Bit rate mode : Constant
Bit rate : 192 kb/s
Channel(s) : 2 channels
Channel layout : L R
Sampling rate : 48.0 kHz
Frame rate : 31.250 FPS (1536 SPF)
Compression mode : Lossy
Delay relative to video : -5 ms
Stream size : 203 MiB (4%)
Title : Stereo
Service kind : Complete Main
Default : Yes
Forced : No

Fight Night 175 720p Free Online

 

Event: UFC Vegas 8: “Smith vs. Rakic”

Date: Sat., Aug. 29, 2020

Location: UFC APEX in Las Vegas, Nevada

Broadcast: ESPN, ESPN+

 

 

UFC Vegas 8 Main Event on ESPN+:

205 lbs.: Anthony Smith vs. Aleksandar Rakic

115 lbs.: Alexa Grasso vs. Ji Yeon Kim

145 lbs.: Ricardo Lamas vs. Bill Algeo

UFC Fight Night Smith vs Rakic Main Card on ESPN+ (9 p.m. ET):

170 lbs.: Robbie Lawler vs. Neil Magny

205 lbs.: Magomed Ankalaev vs. Ion Cutelaba

UFC Vegas 8 Prelims Card on ESPN/ESPN+ (6 p.m. ET):

185 lbs.: Maki Pitolo vs. Impa Kasanganay
115 lbs.: Mallory Martin vs. Hannah Cifers
185 lbs.: Alessio Di Chirico vs. Zak Cummings
145 lbs.: Alex Caceres vs. Austin Springer
115 lbs.: Polyana Viana vs. Emily Whitmire
170 lbs.: Sean Brady vs. Christian Aguilera

 

UFC Fight Night 175 720p Free Online

Rakic Looks to Get Back on Track

Depending on who you ask, Rakic has no need to “get back on track” Saturday. He beat Volkan Oezdemir,

yet his official record has an “L” next to the contest. 

Yet “No Time” convinced two of the three people whose opinions on ,

the subject actually matter en route to a split decision win. 

Regardless, the Austrian experienced a loss for the first time since October 2011,

and should be anxious to get back in the win column. If he does, it’ll be against his toughest test yet.

Smith lives up to his Lionheart moniker in the cage and matches his toughness with a broad array of strikes. 

Finishing Smith isn’t an easy task. Glover Teixeira was able to do it in the latter rounds of their fight,

but it’s important to note that Smith was winning that fight through the early rounds.

 

 

UFC Fight Night 175 720p Free Online

 

 

[/su_expand]

 

 

 

Watch online

 

 

[su_expand more_text=”Open Videos Online” less_text=”Close Videos” height=”0″ text_color=”#0859fe” link_color=”#a74a69″ link_style=”button” more_icon=”icon: play” less_icon=”icon: stop”]

 

 

Server 1

 

 

 

 

watch now

 

 

 

 

Server-2

 

 

 

UFC Fight Night 175 720p Free Online

 

 

 

 

Server-3

 

 

 

watch now

 

 

 

 

 

[/su_expand]

Uploaded By Site DX-TV.com

 

 

 

Download Links with High Speed   

 

 

[su_expand more_text=”Open Download Links” less_text=”Close all Links” height=”0″ text_color=”#4b9a3e” link_color=”#1b3fa8″ link_style=”button” more_icon=”icon: link” less_icon=”icon: unlink”]

Keep2Share

 

 

 

nitroflare.com

 

 

 

rapidgator.net

 

 

 

 

[/su_expand]
dx-tv.com

 

urlfree.net