UFC Fight Night 171 Prelims 720p Full Show

UFC Fight Night 171 Prelims 720p HDTV VERUM DX-TV

Prelims

 UFC Fight Night 175


 

UFC Fight Night 171 Prelims 720p Full Show

 

 

Complete name : UFC.Fight.Night.171.Prelims.720p.HDTV.x264-VERUM.mkv
Format : Matroska
Format version : Version 4
File size : 2.63 GiB
Duration : 2 h 0 min
Overall bit rate : 3 137 kb/s
Writing application : x264.exe
Writing library : Prelims

Video
ID : 1
Format : AVC
Format/Info : Advanced Video Codec
Codec ID : Prelims
Duration : 2 h 0 min
Bit rate : 2 691 kb/s
Width : 1 280 pixels
Height : 720 pixels
Display aspect ratio : 16:9
Frame rate mode : Prelims
Frame rate : 50.000 FPS
Color space : YUV
Chroma subsampling : 4:2:0
Bit depth : 8 bits
Scan type : Prelims
Bits/(Pixel*Frame) : 0.058
Stream size : 2.26 GiB (86%)
Language : English
Color range : Limited
Matrix coefficients : BT.709
Duration_Source : Prelims

Audio
ID : 2
Format version : Version 1
Format profile : Layer 2
Codec ID : Prelims
Codec ID/Hint : MP2
Duration : 2 h 0 min
Bit rate mode : Constant
Bit rate : 384 kb/s
Channel(s) : 2 channels
Sampling rate : 48.0 kHz
Compression mode : Lossy
Stream size : 330 MiB (12%)
Language : English
Default : Yes
Forced : No
Duration_Source : Prelims

 

 

 

Watch online

 

 

Server 1

 

 

 

 

watch now

 

 

 

 

Server 2

 

 

 

watch now

 

 

 

UFC Fight Night 171 Prelims 720p Full Show

 

 

Uploaded By Site DX-TV.com

 

 

 

Download with premium account Links 

 

 

Keep2Share

 

 

nitroflare.com

 

 

rapidgator.net

 

 

uploadgig.com

 

 

 

dx-tv.com

 

urlfree.net

 10 total views,  1 views today

Leave a Reply

Your email address will not be published. Required fields are marked *

This site uses Akismet to reduce spam. Learn how your comment data is processed.

%d bloggers like this: