UFC Fight Night 171 Online Free 720p

Watch UFC Fight Night 171 720p HDTV VERUM DX-TV

UFC free

UFC Fight Night

UFC Fight Night 171 Online Free 720p

 

 

Complete name : UFC.Fight.Night.171.720p.HDTV.x264-VERUM.mkv
Format : Matroska
Format version : Version 4
File size : 4.62 GiB
Duration : 3 h 24 min
Overall bit rate : 3 240 kb/s
Writing application : UFC free

Video
ID : 1
Format : AVC
Format/Info : Advanced Video Codec
Codec ID : UFC free
Duration : 3 h 24 min
Bit rate : 2 791 kb/s
Width : 1 280 pixels
Height : 720 pixels
Display aspect ratio : 16:9
Frame rate mode : UFC free
Frame rate : 50.000 FPS
Color space : YUV
Chroma subsampling : 4:2:0
Bit depth : 8 bits
Scan type : Progressive
Bits/(Pixel*Frame) : 0.061
Stream size : 3.98 GiB (86%)
Language : English
Color range : UFC free

Audio
ID : 2
Format : UFC free
Format profile : UFC free
Codec ID : A_MPEG/L2
Codec ID/Hint : MP2
Duration : 3 h 24 min
Bit rate mode : Constant
Bit rate : 384 kb/s
Channel(s) : 2 channels
Sampling rate : 48.0 kHz
Compression mode : Lossy
Stream size : 561 MiB (12%)
Language : English
Default : Yes
Forced : UFC free

 

 

 

Watch online

 

 

Server 1

 

 

 

 

watch now

 

 

 

 

Server 2

 

 

 

watch now

 

 

 

 

 

Uploaded By Site DX-TV.com

 

 

 

Download with premium account Links 

 

 

Keep2Share

 

 

nitroflare.com

 

 

rapidgator.net

 

 

uploadgig.com

 

 

 

dx-tv.com

 

urlfree.net

 11 total views,  1 views today

Leave a Reply

Your email address will not be published. Required fields are marked *

This site uses Akismet to reduce spam. Learn how your comment data is processed.

%d bloggers like this: