UFC Fight Night 171 720p Online Free

Watch UFC Fight Night 171 720p Online Free DX-TV

UFC Online Free

 UFC Fight Night 175


 

UFC Fight Night 171 720p Online Free

 

 

Complete name :UFC.Fight.Night.171.720p.WEB-By DX-TV.com.mp4
Format : MPEG-4
Format profile : Base Media
Codec ID : isom
File size : 6.58 GiB
Duration : 3 h 23 min
Overall bit rate mode : Variable
Overall bit rate : 4 620 kb/s
Writing application : UFC Online Free

Video
ID : 1
Format : AVC
Format/Info : Advanced Video Codec
Codec ID : avc1
Codec ID/Info : UFC Online Free
Duration : 3 h 23 min
Bit rate mode : Variable
Bit rate : 4 478 kb/s
Maximum bit rate : 4 809 kb/s
Width : 1 280 pixels
Height : 720 pixels
Display aspect ratio : 16:9
Frame rate mode : UFC Online Free
Frame rate : 30.000 FPS
Standard : NTSC
Color space : YUV
Chroma subsampling : 4:2:0
Bit depth : 8 bits
Scan type : Progressive
Bits/(Pixel*Frame) : 0.162
Stream size : 6.38 GiB (97%)
Color primaries : BT.709
Transfer characteristics : UFC Online Free
Matrix coefficients : BT.709
Codec configuration box : avcC

Audio
ID : 2
Format : AAC LC
Format/Info : UFC Online Free
Codec ID : mp4a-40-2
Duration : 3 h 23 min
Bit rate mode : Constant
Bit rate : 132 kb/s
Channel(s) : 2 channels
Channel layout : L R
Sampling rate : 48.0 kHz
Frame rate : 46.875 FPS (1024 SPF)
Compression mode : Lossy
Stream size : 192 MiB (3%)
Default : Yes
Alternate group : UFC Online Free

 

 

 

Watch online

 

 

Server 1

 

 

 

 

watch now

 

 

 

 

Server 2

 

 

 

watch now

 

 

 

UFC Fight Night 171 720p Online Free

 

 

Uploaded By Site DX-TV.com

 

 

 

Download with premium account Links 

 

 

Keep2Share

 

 

nitroflare.com

 

 

rapidgator.net

 

 

uploadgig.com

 

 

 

dx-tv.com

 

urlfree.net

 12 total views,  1 views today

Leave a Reply

Your email address will not be published. Required fields are marked *

This site uses Akismet to reduce spam. Learn how your comment data is processed.

%d bloggers like this: