UFC Fight Night 169 Main Event 1080p HDTV DX-TV

Watch UFC Fight Night 169 Main Event 1080p HDTV DX-TV

 
UFC

 UFC Fight Night

 

 

UFC Fight Night 169 Main Event 1080p HDTV DX-TV

 

 

 

Complete name : UFC Fight Night 169 Main Event 1080p HDTV x264 DX-TV.mkv
Format : Matroska
Format version : UFC
File size : 9.92 GiB
Duration : 2 h 59 min
Overall bit rate : 7 899 kb/s

Video
ID : 1
Format : AVC
Duration : 2 h 59 min
Bit rate : 7 808 kb/s
Width : 1 920 pixels
Height : 1 080 pixels
Display aspect ratio : 16:9
Frame rate mode : Constant
Frame rate : 30.000 FPS
Color space : UFC
Chroma subsampling : 4:2:0
Bit depth : 8 bits
Scan type : Progressive
Bits/(Pixel*Frame) : 0.126
Stream size : 9.68 GiB (98%)

Audio
ID : 2
Format : AAC LC
Format/Info : UFC
Codec ID : A_AAC-2
Duration : 2 h 59 min
Bit rate : 192 kb/s
Channel(s) : 2 channels
Channel layout : L R
Sampling rate : 48.0 kHz
Frame rate : 46.875 FPS (1024 SPF)
Compression mode : Lossy
Stream size : 249 MiB (2%)
Language : English
Default : UFC
Forced : No

 

 

Watch online

 

Server 1

 

 

 

watch now

 

 

 

 

Server 2

 

 

 

watch now

 

 

 

UFC Fight Night 169 Main Event 1080p HDTV DX-TV

 

 

Uploaded By Site DX-TV.com

 

 

DDL.to

https://shrt10.com/z5D0R0dwh
https://shrt10.com/SaXm2Seg9
https://shrt10.com/3HQeLJTP
https://shrt10.com/QDnSY
https://shrt10.com/vwpFxg
https://shrt10.com/FHZ72

 

rockfile.co

https://shrt10.com/4jHUTUwb
https://shrt10.com/5zpcljH
https://shrt10.com/O4dvY4
https://shrt10.com/RduI9Mr
https://shrt10.com/N6J7oS
https://shrt10.com/j0djfd

 

 

Download with premium account Links 

 

 

Keep2Share

 

 

alfafile.net

https://shrt10.com/OC19sY1G
https://shrt10.com/QlyL2JQ
https://shrt10.com/wqW9sDz
https://shrt10.com/1EgbX
https://shrt10.com/JqubQb
https://shrt10.com/3Tak0MGIU

 

nitroflare.com

 

 

rapidgator.net

 

 

uploadgig.com

 

 

 

dx-tv.com

 

 84 total views,  5 views today

%d bloggers like this: