UFC Fight Night 167 Prelims 1080p HDTV

Watch UFC Fight Night 167 Prelims 1080p HDTV JustHD DX-TV

 

UFC Fight Night 167

 

 UFC Fight Night 167

 

 

 

 

UFC Fight Night 167 Prelims 1080p HDTV

 

 

Complete name : UFC.Fight.Night.167.Prelims.1080p.HDTV.DD2.0.H.264-JustHD.ts
Format : MPEG-TS
File size : 6.91 GiB
Duration : 1 h 55 min
Overall bit rate mode : Variable
Overall bit rate : 8 568 kb/s

Video
ID : 4113 (0x1011)
Menu ID : 1 (0x1)
Format : AVC
Codec ID : 27
Duration : 1 h 55 min
Bit rate : 7 951 kb/s
Width : 1 920 pixels
Height : 1 080 pixels
Display aspect ratio : 16:9
Frame rate : 25.000 FPS
Standard : Component
Color space : YUV
Chroma subsampling : 4:2:0
Bit depth : 8 bits
Scan type : Progressive
Bits/(Pixel*Frame) : 0.153
Stream size : 6.42 GiB (93%)
Color range : Limited
Color primaries : BT.709
Transfer characteristics : BT.709
Matrix coefficients : BT.709

Audio
ID : 4352 (0x1100)
Menu ID : 1 (0x1)
Format : AC-3
Codec ID : 129
Duration : 1 h 55 min
Bit rate mode : Constant
Bit rate : 192 kb/s
Channel(s) : 2 channels
Channel layout : L R
Sampling rate : 48.0 kHz
Frame rate : 31.250 FPS (1536 SPF)
Compression mode : Lossy
Stream size : 159 MiB (2%)
Language : English
Service kind : Complete Main

RELEASE NAME…………: UFC Fight Night 167 Prelims 1080p HDTV DD 2.0 H.264-JustHD
RELEASE SIZE…………: 6.91 GB
RUNTIME……………..: 01:55:32 (H:M:S)
VIDEO FORMAT…………: H264-TS
FRAMERATE……………: 25.000 fps
BITRATE……………..: 7,951 Kbps
RESOLUTION…………..: 1920x1080p
AUDIO……………….: English 2.0 Channel DD @ 192 Kbps
NOTES……………….: None

 

Watch online

 

 

Server 1

 

 

 


 

 

Server 2

 

 

Server–3

 

 


 

 

UFC Fight Night 167 Prelims 1080p HDTV

 

 

Uploaded By Site DX-TV.com

 

 

1fichier.com 

https://shrt10.com/836kZ
https://shrt10.com/OyDbsXc
https://shrt10.com/LOnD9h
https://shrt10.com/342dwUM2h

 

DDL.to

https://shrt10.com/6GbzMIQnP
https://shrt10.com/k388hD
https://shrt10.com/TjSwI4OrT
https://shrt10.com/DKT4wJ

 

earn4files.com

https://shrt10.com/TYVXNy9K
https://shrt10.com/tMhB1h
https://shrt10.com/mzN4s0ln
https://shrt10.com/cs5lPr

 

rockfile.co

https://shrt10.com/24HawD
https://shrt10.com/Pok2mdvL
https://shrt10.com/dF90jUz
https://shrt10.com/lj2gq

 

 

Download with premium account Links 

 

 

Keep2Share

 

 

nitroflare.com

 

 

rapidgator.net

 

 

uploadgig.com

 

 

 

dx-tv.com