UFC Fight Night 166 Prelims Online

UFC Fight Night 166 Prelims Online DX-TV

 

 

WWE Royal Rumble

 

 

 

 

dx-tv.com

 

 

 

 

UFC Fight Night 166 Prelims 720p Online

 

 

 

Complete name : D:\WWE\UFC.Fight.Night.166.Prelims.WEB.mp4
Format : MPEG-4
Format profile : Base Media
Codec ID : isom (isom/iso2/avc1/mp41)
File size : 2.77 GiB
Duration : 3 h 48 min
Overall bit rate : 1 740 kb/s
Writing application : Lavf58.12.100

Video
ID : 1
Format : AVC
Duration : 3 h 48 min
Bit rate : 1 600 kb/s
Width : 960 pixels
Height : 540 pixels
Display aspect ratio : 16:9
Frame rate mode : Constant
Frame rate : 30.000 FPS
Color space : YUV
Chroma subsampling : 4:2:0
Bit depth : 8 bits
Scan type : Progressive
Bits/(Pixel*Frame) : 0.103
Stream size : 2.55 GiB (92%)

Audio
ID : 2
Format : AAC LC
Format/Info : Advanced Audio Codec Low Complexity
Codec ID : mp4a-40-2
Duration : 3 h 48 min
Bit rate mode : Constant
Bit rate : 132 kb/s
Channel(s) : 2 channels
Channel layout : L R
Sampling rate : 48.0 kHz
Frame rate : 46.875 FPS (1024 SPF)
Compression mode : Lossy
Stream size : 214 MiB (8%)
Default : Yes
Alternate group : 1

 

Watch online

 

 

Server 1

 

 

 

 

 

 

 

 

 

 

 

Server 2

 

 

 

 

 

 

 

 

 

 

Server–3

 

 

 

 

 

 

 

Server–4

 

 

 

 

 

UFC Fight Night 166 Prelims 720p Online

 

 

 

Uploaded By Site DX-TV.com

 

 

 

[member]  

FTP Link Download high speed

[/member]  

 

Download with premium account Links 

 

 

nitroflare.com

 

 

rapidgator.net

 

 

uploaded.net