UFC Fight Night 166 Blaydes vs dos Santos Online Star

UFC Fight Night 166 Blaydes vs dos Santos Online Star DX-TV

 

 

UFC

 

 

 

 

dx-tv.com

 

 

 

 

UFC Fight Night 166 Blaydes vs dos Santos Online Star

 

 

 

 

 

Complete name : UFC.Fight.Night.166.Blaydes.vs.dos.Santos.HDTV.x264-Star.mp4
Format : MPEG-4
Format profile : Base Media / Version 2
Codec ID : mp42 (isom/iso2/avc1/mp41)
File size : 1.71 GiB
Duration : 2 h 27 min
Overall bit rate : 1 654 kb/s

Video
ID : 1
Format : AVC
Format/Info : Advanced Video Codec
Codec ID/Info : Advanced Video Coding
Duration : 2 h 27 min
Bit rate : 1 500 kb/s
Width : 720 pixels
Height : 406 pixels
Display aspect ratio : 16:9
Frame rate mode : Constant
Frame rate : 25.000 FPS
Color space : YUV
Chroma subsampling : 4:2:0
Bit depth : 8 bits
Scan type : Progressive
Bits/(Pixel*Frame) : 0.205
Stream size : 1.54 GiB (90%)
Color range : Limited
Color primaries : BT.601 PAL
Transfer characteristics : BT.709
Matrix coefficients : BT.601
Codec configuration box : avcC

Audio
ID : 2
Format : AAC LC
Format/Info : Advanced Audio Codec Low Complexity
Codec ID : mp4a-40-2
Duration : 2 h 27 min
Bit rate mode : Constant
Bit rate : 154 kb/s
Channel(s) : 2 channels
Channel layout : L R
Sampling rate : 48.0 kHz
Frame rate : 46.875 FPS (1024 SPF)
Compression mode : Lossy
Stream size : 163 MiB (9%)
Title : Stereo
Language : any
Default : Yes
Alternate group : 1

 

 

 

 

Watch online

 

 

Server 1

 

 

 

watch now

 

 

UFC Fight Night 166 Blaydes vs dos Santos Online Star

 

 

 

Uploaded By Site DX-TV.com

 

 

 

 

 

Download VIP Members FTP server Download 1 Link and Free Links 

 

 

 

Limited Time will be removed after 90 days if you need available again pm email admin

 

[member]

FTP Link Download high speed

[/member]

1fichier.com 

 

https://shrt10.com/SfhvTzM
https://shrt10.com/lMm1Eal7

dailyuploads.net

 

https://shrt10.com/1bbfg
https://shrt10.com/ZBuvU0enD

 

DDL.to

 

https://shrt10.com/JUylQORvx
https://shrt10.com/qKjYh3US

 

earn4files.com

 

https://shrt10.com/OXWiXSW9
https://shrt10.com/7BcA5H1W

 

filerio.in

 

https://shrt10.com/uPjNNxHV
https://shrt10.com/bfTBPcDs

 

katfile.com

 

https://shrt10.com/TFnwe
https://shrt10.com/7kYv9Z7cV

 

rockfile.co

 

https://shrt10.com/c7a9i
https://shrt10.com/elO81RJo

 

Ubloadbank.com

 

https://shrt10.com/d81rBrz
https://shrt10.com/A7tIbQG

 

Download with premium account Links 

 

 

nitroflare.com

 

 

rapidgator.net

 

 

uploaded.net

 

 

 

 

 

 

 

 

 

You May Also Like