UFC Fight Night 139 Korean Zombie vs Rodríguez 720p HDTV Star

UFC Fight Night 139 Korean Zombie vs Rodríguez 720p HDTV Star

 

 

 

 


 

 

dx-tv.com

 

 

 

 

 

Complete name : UFC.Fight.Night.139.Korean.Zombie.vs.Rodríguez.720p.HDTV.x264-Star.mp4
Format : MPEG-4
Format profile : Base Media
Codec ID : mp42
File size : 6.86 GiB
Duration : 3h 28mn
Overall bit rate : 4 707 Kbps
Encoded date : UTC 2018-11-11 07:27:56
Tagged date : UTC 2018-11-11 07:27:56

Video
ID : 1
Format : AVC
Format/Info : Advanced Video Codec
Codec ID : avc1
Codec ID/Info : Advanced Video Coding
Duration : 3h 28mn
Bit rate mode : Variable
Bit rate : 4 500 Kbps
Width : 1 280 pixels
Height : 720 pixels
Display aspect ratio : 16:9
Frame rate mode : Constant
Frame rate : 29.970 fps
Color space : YUV
Chroma subsampling : 4:2:0
Bit depth : 8 bits
Scan type : Progressive
Bits/(Pixel*Frame) : 0.163
Stream size : 6.57 GiB (96%)

Audio
ID : 2
Format : AAC
Format/Info : Advanced Audio Codec
Format profile : LC
Codec ID : 40
Duration : 3h 28mn
Bit rate mode : Variable
Bit rate : 192 Kbps
Channel(s) : 2 channels
Channel positions : Front: L R
Sampling rate : 48.0 KHz
Compression mode : Lossy
Stream size : 287 MiB (4%)
Title : Stereo
Encoded date : UTC 2018-11-11 07:27:56
Tagged date : UTC 2018-11-11 07:27:56

 

 

 

 

UFC Fight Night 139 Korean Zombie vs Rodríguez 720p HDTV Star

 

 

 

 

Watch online

 

 

Waiting finish converting video

 

 

Server 1

 

 

 

 

 

 

 

 

 

 

 

 

 

 

 

Server 2

 

 

 

 

 

 


 

 

 

 

Uploaded By Site DX-TV.com

 

 

 

open rar file to see this password

 

 

 

 

The password : DX-TV.com

 

 

 

 

Uploaded.net + rapidgator.net

 

 

 

 

 

 

http://shrt10.com/we4p
 

 

 
http://shrt10.com/uSxL
 

 

 
http://shrt10.com/KnLn77KI
 

 

 
http://shrt10.com/dlhkKx
 

 

 

 

 

UFC Fight Night 139 Korean Zombie vs Rodríguez 720p HDTV Star