UFC Fight Night 138 Prelims 720p WEB DL

UFC Fight Night 138 Prelims 720p WEB DL

 

 

 

 


 

 

 

dx-tv.com

 

 

 

 

 

Complete name : UFC.Fight.Night.138.Prelims.720p.WEB-DL.mp4
Format : MPEG-4
Format profile : Base Media
File size : 3.43 GiB
Duration : 1 h 59 min
Overall bit rate : 4 109 kb/s
Writing application : Lavf56.40.101

Video
ID : 1
Format : AVC
Format/Info : Advanced Video Codec
Codec ID/Info : Advanced Video Coding
Duration : 1 h 59 min
Bit rate : 3 974 kb/s
Width : 1 280 pixels
Height : 720 pixels
Display aspect ratio : 16:9
Frame rate mode : Constant
Frame rate : 29.970 (30000/1001) FPS
Original frame rate : 29.970 (29970/1000) FPS
Color space : YUV
Chroma subsampling : 4:2:0
Bit depth : 8 bits
Scan type : Progressive
Bits/(Pixel*Frame) : 0.144
Stream size : 3.32 GiB (97%)

Audio
ID : 2
Format : AAC
Format/Info : Advanced Audio Codec
Format profile : LC
Codec ID : mp4a-40-2
Duration : 1 h 59 min
Bit rate mode : Constant
Bit rate : 126 kb/s
Channel(s) : 2 channels
Channel positions : Front: L R
Sampling rate : 44.1 kHz
Frame rate : 43.066 FPS (1024 SPF)
Compression mode : Lossy
Stream size : 107 MiB (3%)
Default : Yes
Alternate group : 1

 

 

 

 

UFC Fight Night 138 Prelims 720p WEB DL

 

 

 

 

Watch online

 

 

Waiting finish converting video

 

 

Server 1

 

 

 

 

 

 

 

 

 

 

 

 

 

 

 

 

Server 2

 

 

 

 

 

 

 

 

 

 

 

 

 

 

Uploaded By Site DX-TV.com

 

 

 

open rar file to see this password

 

 

 

 

The password : DX-TV.com

 

 

 

 

Uploaded.net + rapidgator.net

 

 

 

 

 

 

 

http://shrt10.com/sNcDx

 

 

 

http://shrt10.com/73oTK

 

 

 

 

 

UFC Fight Night 138 Prelims 720p WEB DL