UFC Fight Night 136 Hunt vs Oleinik HDTV 1080p Gelo B

UFC Fight Night 136 Hunt vs Oleinik HDTV 1080p Gelo B

 

 

 

 


 

 

 

dx-tv.com

 

 

 

 

 

 

Complete name : UFC Fight Night 136 Hunt vs. Oleinik HDTV- 1080p Gelo B.ts
Format : MPEG-TS
File size : 9.53 GiB
Duration : 1 h 58 min
Overall bit rate mode : Variable
Overall bit rate : 11.5 Mb/s
Country : NLD
Timezone : +02:00:00

Video
Codec ID : 27
Duration : 1 h 58 min
Bit rate : 10.6 Mb/s
Width : 1 920 pixels
Height : 1 080 pixels
Display aspect ratio : 16:9
Frame rate : 25.000 FPS
Standard : Component
Color space : YUV
Chroma subsampling : 4:2:0
Bit depth : 8 bits
Scan type : MBAFF
Bits/(Pixel*Frame) : 0.205
Stream size : 8.84 GiB (93%)
Color range : Limited
Color primaries : BT.709
Transfer characteristics : BT.709
Matrix coefficients : BT.709

Audio
ID : 102 (0x66)
Menu ID : 201 (0xC9)
Format version : Version 1
Format profile : Layer 2
Codec ID : 3
Duration : 1 h 58 min
Bit rate mode : Constant
Bit rate : 256 kb/s
Channel(s) : 2 channels
Sampling rate : 48.0 kHz
Frame rate : 41.667 FPS
Compression mode : Lossy
Delay relative to video : -808 ms
Stream size : 218 MiB (2%)
Language : English
 

 

 

 

UFC Fight Night 136 Hunt vs Oleinik HDTV 1080p Gelo B

 

 

 

 

 

Uploaded By Site DX-TV.com

 

 

 

open rar file to see this password

 

 

 

 

The password : DX-TV.com

 

 

 

 

Uploaded.net + rapidgator.net

 

 

 

 

 
http://shrt10.com/XDZpnBPK
 

 

 
http://shrt10.com/dMgLIs6Z
 

 

 
http://shrt10.com/HO0mzeR

 

 

http://shrt10.com/PXOop5
 

 

 
http://shrt10.com/AURhJRT
 

 

 
http://shrt10.com/PiS7uT2M

 

 

 

 

 

 

 

 

 

UFC Fight Night 136 Hunt vs Oleinik HDTV 1080p Gelo B

Leave a Reply

This site uses Akismet to reduce spam. Learn how your comment data is processed.

Support HVIPS

Please Disable Ad-Block To View This site. just help us to continue this work