UFC Fight Night 129 Main Card HDTV 1080i Gelo B Watch / Download

UFC Fight Night 129 Main Card HDTV 1080i Gelo B Watch / Download

 

 

 

 


dx-tv.com

 

 

 

 

 

Complete name : UFC Fight Night 129 MAIN CARD HDTV .1080p, ENG Gelo B.ts
Format : MPEG-TS
Format/Info : Advanced Video Codec
File size : 11.0 GiB
Duration : 2h 10mn
Overall bit rate : 12.1 Mbps

Video
Format : AVC
Format/Info : Advanced Video Codec
Codec ID : 27
Duration : 2h 10mn
Bit rate : 11.2 Mbps
Width : 1 920 pixels
Height : 1 080 pixels
Display aspect ratio : 16:9
Frame rate : 25.000 fps
Color space : YUV
Chroma subsampling : 4:2:0
Bit depth : 8 bits
Scan type : Interlaced
Scan order : Top Field First
Bits/(Pixel*Frame) : 0.217
Stream size : 10.3 GiB (93%)

Audio
ID : 202 (0xCA)
Menu ID : 777 (0x309)
Format version : Version 1
Format profile : Layer 2
Codec ID : 4
Duration : 2h 10mn
Bit rate mode : Constant
Bit rate : 256 Kbps
Channel(s) : 2 channels
Sampling rate : 48.0 KHz
Compression mode : Lossy
Delay relative to video : 25ms
Stream size : 239 MiB (2%)
Language : English
 

 

 

 

 

 

UFC Fight Night 129 Main Card HDTV 1080i Gelo B Watch / Download

 

 

 

 

 

Uploaded By Site DX-TV.com

 

 

 

open rar file to see this password

 

 

 

 

The password is : DX-TV.com

 

 

 

 

 

 

 

Uploaded.net + rapidgator.net

 

 

 

 

 
http://shrt10.com/KLbYSe
 

http://shrt10.com/D9wcMJ2
 

http://shrt10.com/3x3mYN3l
 

http://shrt10.com/8XB2oNr
 

http://shrt10.com/P9Hc
 

 

 

 

 

UFC Fight Night 129 Main Card HDTV 1080i Gelo B Watch / Download

Leave a Reply

Your email address will not be published. Required fields are marked *

WhatsApp chat
%d bloggers like this: