UFC 264 Poirier vs McGregor 3 PPV Free Online 720p/ 1080p Replay VERUM DX-TV

Contents show

UFC 264 Poirier vs McGregor 3

 UFC 264 Poirier vs McGregor 3

 

 

 

Download Links with premium High Speed


Dopapk

 

 

Show Links

 

http://shrt10.com/fsQmwiF
http://shrt10.com/rYOCSR
http://shrt10.com/hcrv0rG4A

 

[collapse]

 

 

Nitroflare

 

 

Show Links

 

http://shrt10.com/3mGqkumH
http://shrt10.com/UsCJ5Q0N
http://shrt10.com/pF5JDZHGs

 

[collapse]

 

 

Rapidgator

 

 

Show Links

 

http://shrt10.com/zVZznUw
http://shrt10.com/j5ypYOWO
http://shrt10.com/yzR15lD

 

[collapse]

 

 

Uploaded

 

 

Show Links

 

http://shrt10.com/XdLJnAKaQ
http://shrt10.com/1fKqQC0s

 

[collapse]

 

 

Watch online

 

Server 1

 

 

 

 

watch now

 

 

 

 

Server-2

 

 

 

 

UFC 264 Poirier vs McGregor 3

 

 

 

|Server-3

 

 

 

 

watch now

 

 

Uploaded By Site DX-TV.com

 

 

Show Info This Show

 

UFC 264 Poirier vs McGregor 3

Complete name : UFC.264.Poirier.vs.McGregor.3.PPV.1080p.HDTV.x264-VERUM.mkv
Format : Matroska
Format version : Version 4
File size : 10.1 GiB
Duration : 2 h 50 min
Overall bit rate : 8 498 kb/s

Video
ID : 1
Format : AVC
Duration : 2 h 50 min
Bit rate : 7 945 kb/s
Width : 1 920 pixels
Height : 1 080 pixels
Display aspect ratio : 16:9
Frame rate mode : Constant
Frame rate : 50.000 FPS
Color space : YUV
Chroma subsampling : 4:2:0
Bit depth : 8 bits
Scan type : Progressive
Bits/(Pixel*Frame) : 0.077
Stream size : 9.43 GiB (93%)
Forced : No
Color range : Limited
Color primaries : BT.709
Transfer characteristics : BT.709
Matrix coefficients : BT.709

UFC 264 Poirier vs McGregor 3

Audio
ID : 2
Format : MPEG Audio
Format version : Version 1
profile : Layer 2
Codec ID : A_MPEG/L2
Codec ID/Hint : MP2
Duration : 2 h 50 min
Bit rate mode : Constant
Bit rate : 384 kb/s
Channel(s) : 2 channels
Sampling rate : 48.0 kHz
Compression mode : Lossy
Stream size : 467 MiB (5%)
Language : English
Default : Yes
Forced : No

Complete name : UFC.264.Poirier.vs.McGregor.3.PPV.720p.HDTV.x264-VERUM.mkv
Format : Matroska
Format version : Version 4
File size : 4.36 GiB
Duration : 2 h 50 min
Overall bit rate : 3 671 kb/s

UFC 264 Poirier vs McGregor 3

Video
ID : 1
Format : AVC
Duration : 2 h 50 min
Bit rate : 3 214 kb/s
Width : 1 280 pixels
Height : 720 pixels
Display aspect ratio : 16:9
Frame rate mode : Constant
Frame rate : 50.000 FPS
Color space : YUV
Chroma subsampling : 4:2:0
Bit depth : 8 bits
Scan type : Progressive
Bits/(Pixel*Frame) : 0.070
Stream size : 3.82 GiB (88%)
Forced : No
Color range : Limited
Color primaries : BT.709
Transfer characteristics : BT.709
Matrix coefficients : BT.709

UFC 264 Poirier vs McGregor 3

Audio
ID : 2
Format : MPEG Audio
version : Version 1
Format profile : Layer 2
Codec ID : A_MPEG/L2
Codec ID/Hint : MP2
Duration : 2 h 50 min
Bit rate mode : Constant
Bit rate : 384 kb/s
Channel(s) : 2 channels
Sampling rate : 48.0 kHz
Compression mode : Lossy
Stream size : 467 MiB (10%)
Language : English
Default : Yes
Forced : No

Complete name : UFC.264.540p.HDTV.H264.By DX-TV.Com.mkv
Format : Matroska
Format version : Version 4
File size : 1.98 GiB
Duration : 2 h 50 min
Overall bit rate : 1 667 kb/s

UFC 264 Poirier vs McGregor 3

Video
ID : 1
Format : AVC
Format/Info : Advanced Video
Duration : 2 h 50 min
Width : 960 pixels
Height : 540 pixels
Display aspect ratio : 16:9
Frame rate mode : Constant
Frame rate : 50.000 FPS
Color space : YUV
Chroma subsampling : 4:2:0
Bit depth : 8 bits
Scan type : Progressive
Forced : No
Color range : Limited
Color primaries : BT.709
Transfer characteristics : BT.709
Matrix coefficients : BT.709

Audio
ID : 2
Format : AAC LC
Format/Info : Advanced Audio
Codec ID : A_AAC-2
Duration : 2 h 50 min
Channel(s) : 2 channels
Channel layout : L R
Sampling rate : 48.0 kHz
Frame rate : 46.875 FPS
Compression mode : Lossy
Delay relative to video : -21 ms
Title : Stereo
Language : English
Default : Yes
Forced : No

UFC 264 Poirier vs McGregor 3

Complete name : UFC.264.Poirier.vs.McGregor.3.PPV.1080p.HDTV.x264-VERUM.mkv
Format : Matroska
Format version : Version 4
File size : 10.1 GiB
Duration : 2 h 50 min
Overall bit rate : 8 498 kb/s

Video
ID : 1
Format : AVC
Duration : 2 h 50 min
Bit rate : 7 945 kb/s
Width : 1 920 pixels
Height : 1 080 pixels
Display aspect ratio : 16:9
Frame rate mode : Constant
Frame rate : 50.000 FPS
Color space : YUV
Chroma subsampling : 4:2:0
Bit depth : 8 bits
Scan type : Progressive
Bits/(Pixel*Frame) : 0.077
Stream size : 9.43 GiB (93%)
Forced : No
Color range : Limited
Color primaries : BT.709
Transfer characteristics : BT.709
Matrix coefficients : BT.709

UFC 264 Poirier vs McGregor 3

Audio
ID : 2
Format : MPEG Audio
Format version : Version 1
profile : Layer 2
Codec ID : A_MPEG/L2
Codec ID/Hint : MP2
Duration : 2 h 50 min
Bit rate mode : Constant
Bit rate : 384 kb/s
Channel(s) : 2 channels
Sampling rate : 48.0 kHz
Compression mode : Lossy
Stream size : 467 MiB (5%)
Language : English
Default : Yes
Forced : No

Complete name : UFC.264.Poirier.vs.McGregor.3.PPV.720p.HDTV.x264-VERUM.mkv
Format : Matroska
Format version : Version 4
File size : 4.36 GiB
Duration : 2 h 50 min
Overall bit rate : 3 671 kb/s

UFC 264 Poirier vs McGregor 3

Video
ID : 1
Format : AVC
Duration : 2 h 50 min
Bit rate : 3 214 kb/s
Width : 1 280 pixels
Height : 720 pixels
Display aspect ratio : 16:9
Frame rate mode : Constant
Frame rate : 50.000 FPS
Color space : YUV
Chroma subsampling : 4:2:0
Bit depth : 8 bits
Scan type : Progressive
Bits/(Pixel*Frame) : 0.070
Stream size : 3.82 GiB (88%)
Forced : No
Color range : Limited
Color primaries : BT.709
Transfer characteristics : BT.709
Matrix coefficients : BT.709

UFC 264 Poirier vs McGregor 3

Audio
ID : 2
Format : MPEG Audio
version : Version 1
Format profile : Layer 2
Codec ID : A_MPEG/L2
Codec ID/Hint : MP2
Duration : 2 h 50 min
Bit rate mode : Constant
Bit rate : 384 kb/s
Channel(s) : 2 channels
Sampling rate : 48.0 kHz
Compression mode : Lossy
Stream size : 467 MiB (10%)
Language : English
Default : Yes
Forced : No

Complete name : UFC.264.540p.HDTV.H264.By DX-TV.Com.mkv
Format : Matroska
Format version : Version 4
File size : 1.98 GiB
Duration : 2 h 50 min
Overall bit rate : 1 667 kb/s

UFC 264 Poirier vs McGregor 3

Video
ID : 1
Format : AVC
Format/Info : Advanced Video
Duration : 2 h 50 min
Width : 960 pixels
Height : 540 pixels
Display aspect ratio : 16:9
Frame rate mode : Constant
Frame rate : 50.000 FPS
Color space : YUV
Chroma subsampling : 4:2:0
Bit depth : 8 bits
Scan type : Progressive
Forced : No
Color range : Limited
Color primaries : BT.709
Transfer characteristics : BT.709
Matrix coefficients : BT.709

Audio
ID : 2
Format : AAC LC
Format/Info : Advanced Audio
Codec ID : A_AAC-2
Duration : 2 h 50 min
Channel(s) : 2 channels
Channel layout : L R
Sampling rate : 48.0 kHz
Frame rate : 46.875 FPS
Compression mode : Lossy
Delay relative to video : -21 ms
Title : Stereo
Language : English
Default : Yes
Forced : No

UFC 264 Poirier vs McGregor 3

Complete name : UFC.264.Poirier.vs.McGregor.3.PPV.1080p.HDTV.x264-VERUM.mkv
Format : Matroska
Format version : Version 4
File size : 10.1 GiB
Duration : 2 h 50 min
Overall bit rate : 8 498 kb/s

Video
ID : 1
Format : AVC
Duration : 2 h 50 min
Bit rate : 7 945 kb/s
Width : 1 920 pixels
Height : 1 080 pixels
Display aspect ratio : 16:9
Frame rate mode : Constant
Frame rate : 50.000 FPS
Color space : YUV
Chroma subsampling : 4:2:0
Bit depth : 8 bits
Scan type : Progressive
Bits/(Pixel*Frame) : 0.077
Stream size : 9.43 GiB (93%)
Forced : No
Color range : Limited
Color primaries : BT.709
Transfer characteristics : BT.709
Matrix coefficients : BT.709

UFC 264 Poirier vs McGregor 3

Audio
ID : 2
Format : MPEG Audio
Format version : Version 1
profile : Layer 2
Codec ID : A_MPEG/L2
Codec ID/Hint : MP2
Duration : 2 h 50 min
Bit rate mode : Constant
Bit rate : 384 kb/s
Channel(s) : 2 channels
Sampling rate : 48.0 kHz
Compression mode : Lossy
Stream size : 467 MiB (5%)
Language : English
Default : Yes
Forced : No

Complete name : UFC.264.Poirier.vs.McGregor.3.PPV.720p.HDTV.x264-VERUM.mkv
Format : Matroska
Format version : Version 4
File size : 4.36 GiB
Duration : 2 h 50 min
Overall bit rate : 3 671 kb/s

UFC 264 Poirier vs McGregor 3

Video
ID : 1
Format : AVC
Duration : 2 h 50 min
Bit rate : 3 214 kb/s
Width : 1 280 pixels
Height : 720 pixels
Display aspect ratio : 16:9
Frame rate mode : Constant
Frame rate : 50.000 FPS
Color space : YUV
Chroma subsampling : 4:2:0
Bit depth : 8 bits
Scan type : Progressive
Bits/(Pixel*Frame) : 0.070
Stream size : 3.82 GiB (88%)
Forced : No
Color range : Limited
Color primaries : BT.709
Transfer characteristics : BT.709
Matrix coefficients : BT.709

UFC 264 Poirier vs McGregor 3

Audio
ID : 2
Format : MPEG Audio
version : Version 1
Format profile : Layer 2
Codec ID : A_MPEG/L2
Codec ID/Hint : MP2
Duration : 2 h 50 min
Bit rate mode : Constant
Bit rate : 384 kb/s
Channel(s) : 2 channels
Sampling rate : 48.0 kHz
Compression mode : Lossy
Stream size : 467 MiB (10%)
Language : English
Default : Yes
Forced : No

Complete name : UFC.264.540p.HDTV.H264.By DX-TV.Com.mkv
Format : Matroska
Format version : Version 4
File size : 1.98 GiB
Duration : 2 h 50 min
Overall bit rate : 1 667 kb/s

UFC 264 Poirier vs McGregor 3

Video
ID : 1
Format : AVC
Format/Info : Advanced Video
Duration : 2 h 50 min
Width : 960 pixels
Height : 540 pixels
Display aspect ratio : 16:9
Frame rate mode : Constant
Frame rate : 50.000 FPS
Color space : YUV
Chroma subsampling : 4:2:0
Bit depth : 8 bits
Scan type : Progressive
Forced : No
Color range : Limited
Color primaries : BT.709
Transfer characteristics : BT.709
Matrix coefficients : BT.709

Audio
ID : 2
Format : AAC LC
Format/Info : Advanced Audio
Codec ID : A_AAC-2
Duration : 2 h 50 min
Channel(s) : 2 channels
Channel layout : L R
Sampling rate : 48.0 kHz
Frame rate : 46.875 FPS
Compression mode : Lossy
Delay relative to video : -21 ms
Title : Stereo
Language : English
Default : Yes
Forced : No

UFC 264 Poirier vs McGregor 3

Complete name : UFC.264.Poirier.vs.McGregor.3.PPV.1080p.HDTV.x264-VERUM.mkv
Format : Matroska
Format version : Version 4
File size : 10.1 GiB
Duration : 2 h 50 min
Overall bit rate : 8 498 kb/s

Video
ID : 1
Format : AVC
Duration : 2 h 50 min
Bit rate : 7 945 kb/s
Width : 1 920 pixels
Height : 1 080 pixels
Display aspect ratio : 16:9
Frame rate mode : Constant
Frame rate : 50.000 FPS
Color space : YUV
Chroma subsampling : 4:2:0
Bit depth : 8 bits
Scan type : Progressive
Bits/(Pixel*Frame) : 0.077
Stream size : 9.43 GiB (93%)
Forced : No
Color range : Limited
Color primaries : BT.709
Transfer characteristics : BT.709
Matrix coefficients : BT.709

UFC 264 Poirier vs McGregor 3

Audio
ID : 2
Format : MPEG Audio
Format version : Version 1
profile : Layer 2
Codec ID : A_MPEG/L2
Codec ID/Hint : MP2
Duration : 2 h 50 min
Bit rate mode : Constant
Bit rate : 384 kb/s
Channel(s) : 2 channels
Sampling rate : 48.0 kHz
Compression mode : Lossy
Stream size : 467 MiB (5%)
Language : English
Default : Yes
Forced : No

Complete name : UFC.264.Poirier.vs.McGregor.3.PPV.720p.HDTV.x264-VERUM.mkv
Format : Matroska
Format version : Version 4
File size : 4.36 GiB
Duration : 2 h 50 min
Overall bit rate : 3 671 kb/s

UFC 264 Poirier vs McGregor 3

Video
ID : 1
Format : AVC
Duration : 2 h 50 min
Bit rate : 3 214 kb/s
Width : 1 280 pixels
Height : 720 pixels
Display aspect ratio : 16:9
Frame rate mode : Constant
Frame rate : 50.000 FPS
Color space : YUV
Chroma subsampling : 4:2:0
Bit depth : 8 bits
Scan type : Progressive
Bits/(Pixel*Frame) : 0.070
Stream size : 3.82 GiB (88%)
Forced : No
Color range : Limited
Color primaries : BT.709
Transfer characteristics : BT.709
Matrix coefficients : BT.709

UFC 264 Poirier vs McGregor 3

Audio
ID : 2
Format : MPEG Audio
version : Version 1
Format profile : Layer 2
Codec ID : A_MPEG/L2
Codec ID/Hint : MP2
Duration : 2 h 50 min
Bit rate mode : Constant
Bit rate : 384 kb/s
Channel(s) : 2 channels
Sampling rate : 48.0 kHz
Compression mode : Lossy
Stream size : 467 MiB (10%)
Language : English
Default : Yes
Forced : No

Complete name : UFC.264.540p.HDTV.H264.By DX-TV.Com.mkv
Format : Matroska
Format version : Version 4
File size : 1.98 GiB
Duration : 2 h 50 min
Overall bit rate : 1 667 kb/s

UFC 264 Poirier vs McGregor 3

Video
ID : 1
Format : AVC
Format/Info : Advanced Video
Duration : 2 h 50 min
Width : 960 pixels
Height : 540 pixels
Display aspect ratio : 16:9
Frame rate mode : Constant
Frame rate : 50.000 FPS
Color space : YUV
Chroma subsampling : 4:2:0
Bit depth : 8 bits
Scan type : Progressive
Forced : No
Color range : Limited
Color primaries : BT.709
Transfer characteristics : BT.709
Matrix coefficients : BT.709

Audio
ID : 2
Format : AAC LC
Format/Info : Advanced Audio
Codec ID : A_AAC-2
Duration : 2 h 50 min
Channel(s) : 2 channels
Channel layout : L R
Sampling rate : 48.0 kHz
Frame rate : 46.875 FPS
Compression mode : Lossy
Delay relative to video : -21 ms
Title : Stereo
Language : English
Default : Yes
Forced : No

UFC 264 Poirier vs McGregor 3

Complete name : UFC.264.Poirier.vs.McGregor.3.PPV.1080p.HDTV.x264-VERUM.mkv
Format : Matroska
Format version : Version 4
File size : 10.1 GiB
Duration : 2 h 50 min
Overall bit rate : 8 498 kb/s

Video
ID : 1
Format : AVC
Duration : 2 h 50 min
Bit rate : 7 945 kb/s
Width : 1 920 pixels
Height : 1 080 pixels
Display aspect ratio : 16:9
Frame rate mode : Constant
Frame rate : 50.000 FPS
Color space : YUV
Chroma subsampling : 4:2:0
Bit depth : 8 bits
Scan type : Progressive
Bits/(Pixel*Frame) : 0.077
Stream size : 9.43 GiB (93%)
Forced : No
Color range : Limited
Color primaries : BT.709
Transfer characteristics : BT.709
Matrix coefficients : BT.709

UFC 264 Poirier vs McGregor 3

Audio
ID : 2
Format : MPEG Audio
Format version : Version 1
profile : Layer 2
Codec ID : A_MPEG/L2
Codec ID/Hint : MP2
Duration : 2 h 50 min
Bit rate mode : Constant
Bit rate : 384 kb/s
Channel(s) : 2 channels
Sampling rate : 48.0 kHz
Compression mode : Lossy
Stream size : 467 MiB (5%)
Language : English
Default : Yes
Forced : No

Complete name : UFC.264.Poirier.vs.McGregor.3.PPV.720p.HDTV.x264-VERUM.mkv
Format : Matroska
Format version : Version 4
File size : 4.36 GiB
Duration : 2 h 50 min
Overall bit rate : 3 671 kb/s

UFC 264 Poirier vs McGregor 3

Video
ID : 1
Format : AVC
Duration : 2 h 50 min
Bit rate : 3 214 kb/s
Width : 1 280 pixels
Height : 720 pixels
Display aspect ratio : 16:9
Frame rate mode : Constant
Frame rate : 50.000 FPS
Color space : YUV
Chroma subsampling : 4:2:0
Bit depth : 8 bits
Scan type : Progressive
Bits/(Pixel*Frame) : 0.070
Stream size : 3.82 GiB (88%)
Forced : No
Color range : Limited
Color primaries : BT.709
Transfer characteristics : BT.709
Matrix coefficients : BT.709

UFC 264 Poirier vs McGregor 3

Audio
ID : 2
Format : MPEG Audio
version : Version 1
Format profile : Layer 2
Codec ID : A_MPEG/L2
Codec ID/Hint : MP2
Duration : 2 h 50 min
Bit rate mode : Constant
Bit rate : 384 kb/s
Channel(s) : 2 channels
Sampling rate : 48.0 kHz
Compression mode : Lossy
Stream size : 467 MiB (10%)
Language : English
Default : Yes
Forced : No

Complete name : UFC.264.540p.HDTV.H264.By DX-TV.Com.mkv
Format : Matroska
Format version : Version 4
File size : 1.98 GiB
Duration : 2 h 50 min
Overall bit rate : 1 667 kb/s

UFC 264 Poirier vs McGregor 3

Video
ID : 1
Format : AVC
Format/Info : Advanced Video
Duration : 2 h 50 min
Width : 960 pixels
Height : 540 pixels
Display aspect ratio : 16:9
Frame rate mode : Constant
Frame rate : 50.000 FPS
Color space : YUV
Chroma subsampling : 4:2:0
Bit depth : 8 bits
Scan type : Progressive
Forced : No
Color range : Limited
Color primaries : BT.709
Transfer characteristics : BT.709
Matrix coefficients : BT.709

Audio
ID : 2
Format : AAC LC
Format/Info : Advanced Audio
Codec ID : A_AAC-2
Duration : 2 h 50 min
Channel(s) : 2 channels
Channel layout : L R
Sampling rate : 48.0 kHz
Frame rate : 46.875 FPS
Compression mode : Lossy
Delay relative to video : -21 ms
Title : Stereo
Language : English
Default : Yes
Forced : No

UFC 264 Poirier vs McGregor 3

Complete name : UFC.264.Poirier.vs.McGregor.3.PPV.1080p.HDTV.x264-VERUM.mkv
Format : Matroska
Format version : Version 4
File size : 10.1 GiB
Duration : 2 h 50 min
Overall bit rate : 8 498 kb/s

Video
ID : 1
Format : AVC
Duration : 2 h 50 min
Bit rate : 7 945 kb/s
Width : 1 920 pixels
Height : 1 080 pixels
Display aspect ratio : 16:9
Frame rate mode : Constant
Frame rate : 50.000 FPS
Color space : YUV
Chroma subsampling : 4:2:0
Bit depth : 8 bits
Scan type : Progressive
Bits/(Pixel*Frame) : 0.077
Stream size : 9.43 GiB (93%)
Forced : No
Color range : Limited
Color primaries : BT.709
Transfer characteristics : BT.709
Matrix coefficients : BT.709

UFC 264 Poirier vs McGregor 3

Audio
ID : 2
Format : MPEG Audio
Format version : Version 1
profile : Layer 2
Codec ID : A_MPEG/L2
Codec ID/Hint : MP2
Duration : 2 h 50 min
Bit rate mode : Constant
Bit rate : 384 kb/s
Channel(s) : 2 channels
Sampling rate : 48.0 kHz
Compression mode : Lossy
Stream size : 467 MiB (5%)
Language : English
Default : Yes
Forced : No

Complete name : UFC.264.Poirier.vs.McGregor.3.PPV.720p.HDTV.x264-VERUM.mkv
Format : Matroska
Format version : Version 4
File size : 4.36 GiB
Duration : 2 h 50 min
Overall bit rate : 3 671 kb/s

UFC 264 Poirier vs McGregor 3

Video
ID : 1
Format : AVC
Duration : 2 h 50 min
Bit rate : 3 214 kb/s
Width : 1 280 pixels
Height : 720 pixels
Display aspect ratio : 16:9
Frame rate mode : Constant
Frame rate : 50.000 FPS
Color space : YUV
Chroma subsampling : 4:2:0
Bit depth : 8 bits
Scan type : Progressive
Bits/(Pixel*Frame) : 0.070
Stream size : 3.82 GiB (88%)
Forced : No
Color range : Limited
Color primaries : BT.709
Transfer characteristics : BT.709
Matrix coefficients : BT.709

UFC 264 Poirier vs McGregor 3

Audio
ID : 2
Format : MPEG Audio
version : Version 1
Format profile : Layer 2
Codec ID : A_MPEG/L2
Codec ID/Hint : MP2
Duration : 2 h 50 min
Bit rate mode : Constant
Bit rate : 384 kb/s
Channel(s) : 2 channels
Sampling rate : 48.0 kHz
Compression mode : Lossy
Stream size : 467 MiB (10%)
Language : English
Default : Yes
Forced : No

Complete name : UFC.264.540p.HDTV.H264.By DX-TV.Com.mkv
Format : Matroska
Format version : Version 4
File size : 1.98 GiB
Duration : 2 h 50 min
Overall bit rate : 1 667 kb/s

UFC 264 Poirier vs McGregor 3

Video
ID : 1
Format : AVC
Format/Info : Advanced Video
Duration : 2 h 50 min
Width : 960 pixels
Height : 540 pixels
Display aspect ratio : 16:9
Frame rate mode : Constant
Frame rate : 50.000 FPS
Color space : YUV
Chroma subsampling : 4:2:0
Bit depth : 8 bits
Scan type : Progressive
Forced : No
Color range : Limited
Color primaries : BT.709
Transfer characteristics : BT.709
Matrix coefficients : BT.709

Audio
ID : 2
Format : AAC LC
Format/Info : Advanced Audio
Codec ID : A_AAC-2
Duration : 2 h 50 min
Channel(s) : 2 channels
Channel layout : L R
Sampling rate : 48.0 kHz
Frame rate : 46.875 FPS
Compression mode : Lossy
Delay relative to video : -21 ms
Title : Stereo
Language : English
Default : Yes
Forced : No

UFC 264 Poirier vs McGregor 3

Complete name : UFC.264.Poirier.vs.McGregor.3.PPV.1080p.HDTV.x264-VERUM.mkv
Format : Matroska
Format version : Version 4
File size : 10.1 GiB
Duration : 2 h 50 min
Overall bit rate : 8 498 kb/s

Video
ID : 1
Format : AVC
Duration : 2 h 50 min
Bit rate : 7 945 kb/s
Width : 1 920 pixels
Height : 1 080 pixels
Display aspect ratio : 16:9
Frame rate mode : Constant
Frame rate : 50.000 FPS
Color space : YUV
Chroma subsampling : 4:2:0
Bit depth : 8 bits
Scan type : Progressive
Bits/(Pixel*Frame) : 0.077
Stream size : 9.43 GiB (93%)
Forced : No
Color range : Limited
Color primaries : BT.709
Transfer characteristics : BT.709
Matrix coefficients : BT.709

UFC 264 Poirier vs McGregor 3

Audio
ID : 2
Format : MPEG Audio
Format version : Version 1
profile : Layer 2
Codec ID : A_MPEG/L2
Codec ID/Hint : MP2
Duration : 2 h 50 min
Bit rate mode : Constant
Bit rate : 384 kb/s
Channel(s) : 2 channels
Sampling rate : 48.0 kHz
Compression mode : Lossy
Stream size : 467 MiB (5%)
Language : English
Default : Yes
Forced : No

Complete name : UFC.264.Poirier.vs.McGregor.3.PPV.720p.HDTV.x264-VERUM.mkv
Format : Matroska
Format version : Version 4
File size : 4.36 GiB
Duration : 2 h 50 min
Overall bit rate : 3 671 kb/s

UFC 264 Poirier vs McGregor 3

Video
ID : 1
Format : AVC
Duration : 2 h 50 min
Bit rate : 3 214 kb/s
Width : 1 280 pixels
Height : 720 pixels
Display aspect ratio : 16:9
Frame rate mode : Constant
Frame rate : 50.000 FPS
Color space : YUV
Chroma subsampling : 4:2:0
Bit depth : 8 bits
Scan type : Progressive
Bits/(Pixel*Frame) : 0.070
Stream size : 3.82 GiB (88%)
Forced : No
Color range : Limited
Color primaries : BT.709
Transfer characteristics : BT.709
Matrix coefficients : BT.709

UFC 264 Poirier vs McGregor 3

Audio
ID : 2
Format : MPEG Audio
version : Version 1
Format profile : Layer 2
Codec ID : A_MPEG/L2
Codec ID/Hint : MP2
Duration : 2 h 50 min
Bit rate mode : Constant
Bit rate : 384 kb/s
Channel(s) : 2 channels
Sampling rate : 48.0 kHz
Compression mode : Lossy
Stream size : 467 MiB (10%)
Language : English
Default : Yes
Forced : No

Complete name : UFC.264.540p.HDTV.H264.By DX-TV.Com.mkv
Format : Matroska
Format version : Version 4
File size : 1.98 GiB
Duration : 2 h 50 min
Overall bit rate : 1 667 kb/s

UFC 264 Poirier vs McGregor 3

Video
ID : 1
Format : AVC
Format/Info : Advanced Video
Duration : 2 h 50 min
Width : 960 pixels
Height : 540 pixels
Display aspect ratio : 16:9
Frame rate mode : Constant
Frame rate : 50.000 FPS
Color space : YUV
Chroma subsampling : 4:2:0
Bit depth : 8 bits
Scan type : Progressive
Forced : No
Color range : Limited
Color primaries : BT.709
Transfer characteristics : BT.709
Matrix coefficients : BT.709

Audio
ID : 2
Format : AAC LC
Format/Info : Advanced Audio
Codec ID : A_AAC-2
Duration : 2 h 50 min
Channel(s) : 2 channels
Channel layout : L R
Sampling rate : 48.0 kHz
Frame rate : 46.875 FPS
Compression mode : Lossy
Delay relative to video : -21 ms
Title : Stereo
Language : English
Default : Yes
Forced : No

UFC 264 Poirier vs McGregor 3

Complete name : UFC.264.Poirier.vs.McGregor.3.PPV.1080p.HDTV.x264-VERUM.mkv
Format : Matroska
Format version : Version 4
File size : 10.1 GiB
Duration : 2 h 50 min
Overall bit rate : 8 498 kb/s

Video
ID : 1
Format : AVC
Duration : 2 h 50 min
Bit rate : 7 945 kb/s
Width : 1 920 pixels
Height : 1 080 pixels
Display aspect ratio : 16:9
Frame rate mode : Constant
Frame rate : 50.000 FPS
Color space : YUV
Chroma subsampling : 4:2:0
Bit depth : 8 bits
Scan type : Progressive
Bits/(Pixel*Frame) : 0.077
Stream size : 9.43 GiB (93%)
Forced : No
Color range : Limited
Color primaries : BT.709
Transfer characteristics : BT.709
Matrix coefficients : BT.709

UFC 264 Poirier vs McGregor 3

Audio
ID : 2
Format : MPEG Audio
Format version : Version 1
profile : Layer 2
Codec ID : A_MPEG/L2
Codec ID/Hint : MP2
Duration : 2 h 50 min
Bit rate mode : Constant
Bit rate : 384 kb/s
Channel(s) : 2 channels
Sampling rate : 48.0 kHz
Compression mode : Lossy
Stream size : 467 MiB (5%)
Language : English
Default : Yes
Forced : No

Complete name : UFC.264.Poirier.vs.McGregor.3.PPV.720p.HDTV.x264-VERUM.mkv
Format : Matroska
Format version : Version 4
File size : 4.36 GiB
Duration : 2 h 50 min
Overall bit rate : 3 671 kb/s

UFC 264 Poirier vs McGregor 3

Video
ID : 1
Format : AVC
Duration : 2 h 50 min
Bit rate : 3 214 kb/s
Width : 1 280 pixels
Height : 720 pixels
Display aspect ratio : 16:9
Frame rate mode : Constant
Frame rate : 50.000 FPS
Color space : YUV
Chroma subsampling : 4:2:0
Bit depth : 8 bits
Scan type : Progressive
Bits/(Pixel*Frame) : 0.070
Stream size : 3.82 GiB (88%)
Forced : No
Color range : Limited
Color primaries : BT.709
Transfer characteristics : BT.709
Matrix coefficients : BT.709

UFC 264 Poirier vs McGregor 3

Audio
ID : 2
Format : MPEG Audio
version : Version 1
Format profile : Layer 2
Codec ID : A_MPEG/L2
Codec ID/Hint : MP2
Duration : 2 h 50 min
Bit rate mode : Constant
Bit rate : 384 kb/s
Channel(s) : 2 channels
Sampling rate : 48.0 kHz
Compression mode : Lossy
Stream size : 467 MiB (10%)
Language : English
Default : Yes
Forced : No

Complete name : UFC.264.540p.HDTV.H264.By DX-TV.Com.mkv
Format : Matroska
Format version : Version 4
File size : 1.98 GiB
Duration : 2 h 50 min
Overall bit rate : 1 667 kb/s

UFC 264 Poirier vs McGregor 3

Video
ID : 1
Format : AVC
Format/Info : Advanced Video
Duration : 2 h 50 min
Width : 960 pixels
Height : 540 pixels
Display aspect ratio : 16:9
Frame rate mode : Constant
Frame rate : 50.000 FPS
Color space : YUV
Chroma subsampling : 4:2:0
Bit depth : 8 bits
Scan type : Progressive
Forced : No
Color range : Limited
Color primaries : BT.709
Transfer characteristics : BT.709
Matrix coefficients : BT.709

Audio
ID : 2
Format : AAC LC
Format/Info : Advanced Audio
Codec ID : A_AAC-2
Duration : 2 h 50 min
Channel(s) : 2 channels
Channel layout : L R
Sampling rate : 48.0 kHz
Frame rate : 46.875 FPS
Compression mode : Lossy
Delay relative to video : -21 ms
Title : Stereo
Language : English
Default : Yes
Forced : No

UFC 264 Poirier vs McGregor 3

 

[collapse]

 

 

https://dx-tv.com/

1 comment
Leave a Reply

Your email address will not be published. Required fields are marked *

This site uses Akismet to reduce spam. Learn how your comment data is processed.

Previous Post
UFC 264

UFC 264 Poirier vs McGregor 3 Prelims 1080p Online Free

Next Post
GCW You Only Die Once 2021

Watch Wrestling Free -GCW You Only Die Once 2021