UFC 257 Full Show Free Online DX-TV

UFC 257 Full Show Poirier Vs McGregor Free Online HDTV Star DX-TV

UFC 257 Full Show

 UFC 257 Full Show

 

Download UFC 257 Full Show Links with premium High Speed   

 

 

dropapk.to

http://shrt10.com/Cxyp3

 

 

nitroflare.com

http://shrt10.com/YPADuWch

 

 

rapidgator.net

http://shrt10.com/yxvwrhaP

 

 

uploaded.net

http://shrt10.com/oClNbyO

 

 

uploadgig.com

http://shrt10.com/SZIRjg3b

 

Watch UFC 257 Full Show online

 

Server 1

 

 

 

 

UFC 257 Full Show

 

 

 

 

Server-2

 

 

 

 

watch now

 

 

Uploaded By Site DX-TV.com

 

 

Complete name : UFC.257.Poirier.vs.McGregor.2.PPV.HDTV.x264-Star.mp4
Format : MPEG-4
Format profile : Base Media
Codec ID : mp42
File size : 1.73 GiB
Duration : 2 h 54 min
Overall bit rate : 1 420 kb/s

UFC 257

Video
ID : 1
Format : AVC
Duration : 2 h 54 min
Bit rate : 1 300 kb/s
Width : 720 pixels
Height : 480 pixels
Display aspect ratio : 16:9
Frame rate mode : Constant
Frame rate : 29.970 FPS
Standard : NTSC
Color space : YUV
Chroma subsampling : 4:2:0
Bit depth : 8 bits
Scan type : Progressive
Bits/(Pixel*Frame) : 0.126
Stream size : 1.58 GiB (91%)
Color range : Limited
Color primaries : BT.601 NTSC
Transfer characteristics : BT.709
Matrix coefficients : BT.601
Codec configuration box : avcC

UFC 257

Audio
ID : 2
Format : AAC LC
Format/Info : Advanced Audio
Codec ID : mp4a-40-2
Duration : 2 h 54 min
Bit rate mode : Constant
Bit rate : 112 kb/s
Channel(s) : 2 channels
Channel layout : L R
Sampling rate : 48.0 kHz
Frame rate : 46.875 FPS (1024 SPF)
Compression mode : Lossy
Stream size : 140 MiB (8%)
Title : Stereo
Default : Yes
Alternate group : 1

UFC 257

Audio
ID : 2
Format : AAC LC
Format/Info : Advanced Audio
Codec ID : mp4a-40-2
Duration : 2 h 54 min
Bit rate mode : Constant
Bit rate : 112 kb/s
Channel(s) : 2 channels
Channel layout : L R
Sampling rate : 48.0 kHz
Frame rate : 46.875 FPS (1024 SPF)
Compression mode : Lossy
Stream size : 140 MiB (8%)
Title : Stereo
Default : Yes
Alternate group : 1

UFC 257

Audio
ID : 2
Format : AAC LC
Format/Info : Advanced Audio
Codec ID : mp4a-40-2
Duration : 2 h 54 min
Bit rate mode : Constant
Bit rate : 112 kb/s
Channel(s) : 2 channels
Channel layout : L R
Sampling rate : 48.0 kHz
Frame rate : 46.875 FPS (1024 SPF)
Compression mode : Lossy
Stream size : 140 MiB (8%)
Title : Stereo
Default : Yes
Alternate group : 1

UFC 257

https://dx-tv.com/

You May Also Like

Leave a Reply

Your email address will not be published. Required fields are marked *

This site uses Akismet to reduce spam. Learn how your comment data is processed.